Featured TV Shows


Great British Railway Journeys S10E14

Posted By: Tavaz
720p (HD) / WEBRip IMDb
Great British Railway Journeys S10E14

Great British Railway Journeys S10E14
WEBRip | MKV | 1280x720 | English | H264 @ 3233 kbps | AAC @ 317 kbps | 28 min 52 s | 734 MiB
Genre: Documentary

Michael Portillo takes to the tracks with a copy of George Bradshaw's Victorian Railway Guidebook. Portillo travels the length and breadth of the country to see how the railways changed us, and what of Bradshaw's Britain remains.

ca7a3c6c0bb844ed85aa7af4459b6e48.mkv (733.6 MB)



General
Unique ID : 118887387846019802030079027384810143108 (0x5970E0C65444098B2432FAFC511AFD84)
Complete name : ./ca7a3c6c0bb844ed85aa7af4459b6e48.mkv
Format : Matroska
Format version : Version 4 / Version 2
File size : 734 MiB
Duration : 28 min 52 s
Overall bit rate : 3 553 kb/s
Encoded date : UTC 2019-02-21 21:40:24
Writing application : mkvmerge v31.0.0 ('Dolores In A Shoestand') 64-bit
Writing library : libebml v1.3.6 + libmatroska v1.4.9

Video
ID : 1
Format : AVC
Format/Info : Advanced Video Codec
Format profile : High@L4.1
Format settings : CABAC / 5 Ref Frames
Format settings, CABAC : Yes
Format settings, RefFrames : 5 frames
Codec ID : V_MPEG4/ISO/AVC
Duration : 28 min 52 s
Bit rate : 3 233 kb/s
Width : 1 280 pixels
Height : 720 pixels
Display aspect ratio : 16:9
Frame rate mode : Constant
Frame rate : 25.000 FPS
Color space : YUV
Chroma subsampling : 4:2:0
Bit depth : 8 bits
Scan type : Progressive
Bits/(Pixel*Frame) : 0.140
Stream size : 668 MiB (91%)
Writing library : x264 core 157 r2935 545de2f
Encoding settings : cabac=1 / ref=5 / deblock=1:-3:-3 / analyse=0x3:0x113 / me=umh / subme=8 / psy=1 / psy_rd=1.00:0.00 / mixed_ref=1 / me_range=16 / chroma_me=1 / trellis=2 / 8x8dct=1 / cqm=0 / deadzone=21,11 / fast_pskip=1 / chroma_qp_offset=-2 / threads=18 / lookahead_threads=3 / sliced_threads=0 / nr=0 / decimate=1 / interlaced=0 / bluray_compat=0 / constrained_intra=0 / bframes=3 / b_pyramid=2 / b_adapt=1 / b_bias=0 / direct=3 / weightb=1 / open_gop=0 / weightp=2 / keyint=250 / keyint_min=25 / scenecut=40 / intra_refresh=0 / rc_lookahead=50 / rc=crf / mbtree=1 / crf=18.0 / qcomp=0.60 / qpmin=0 / qpmax=69 / qpstep=4 / ip_ratio=1.40 / aq=1:0.80
Language : English
Default : Yes
Forced : No
Color range : Limited
Matrix coefficients : BT.709

Audio
ID : 2
Format : AAC
Format/Info : Advanced Audio Codec
Format profile : LC
Codec ID : A_AAC-2
Duration : 28 min 52 s
Bit rate : 317 kb/s
Channel(s) : 2 channels
Channel positions : Front: L R
Sampling rate : 48.0 kHz
Frame rate : 46.875 FPS (1024 SPF)
Compression mode : Lossy
Delay relative to video : 20 ms
Stream size : 65.5 MiB (9%)
Language : English
Default : Yes
Forced : No





Great British Railway Journeys S10E14


Great British Railway Journeys S10E14


Great British Railway Journeys S10E14


Great British Railway Journeys S10E14


Great British Railway Journeys S10E14

All episodes