Index
# A B C D E F G H I J K L M N O P Q R S T U V W X Y Z
Tags
Language
Tags
July 2024
Su Mo Tu We Th Fr Sa
30 1 2 3 4 5 6
7 8 9 10 11 12 13
14 15 16 17 18 19 20
21 22 23 24 25 26 27
28 29 30 31 1 2 3

Featured TV Shows


Greenleaf S01E08

Posted By: Tavaz
1080p (FullHD) / BluRay Remux IMDb
Greenleaf S01E08

Greenleaf S01E08
BluRay Remux | MKV | 1920x1080 | English | H264 @ 26951 kbps | DTS @ 3314.209 kbps | 42 min 2 s | 8.92 GiB
Subtitles: English, Español
Genre: Drama


The unscrupulous world of the Greenleaf family and their sprawling Memphis megachurch, where scandalous secrets and lies are as numerous as the faithful. Born of the church, the Greenleaf family love and care for each other, but beneath the surface lies a den of iniquity—greed, adultery, sibling rivalry and conflicting values—that threatens to tear apart the very core of their faith that holds them together.

Greenleaf.S01E08.The.Whole.Book.1080p.DTS-HD.MA.5.1.AVC.REMUX-FraMeSToR.part1.rar (4.7 GB)
Greenleaf.S01E08.The.Whole.Book.1080p.DTS-HD.MA.5.1.AVC.REMUX-FraMeSToR.part2.rar (4.3 GB)



General
Unique ID : 38611186581265376979819642438280924099 (0x1D0C3E79920A5645DEE1CDC347FDCBC3)
Complete name : ./Greenleaf.S01E08.The.Whole.Book.1080p.DTS-HD.MA.5.1.AVC.REMUX-FraMeSToR.mkv
Format : Matroska
Format version : Version 4
File size : 8.92 GiB
Duration : 42 min 2 s
Overall bit rate mode : Variable
Overall bit rate : 30.4 Mb/s
Movie name : Greenleaf (S01E08) The Whole Book
Encoded date : UTC 2021-12-24 14:31:05
Writing application : mkvmerge v63.0.0 ('Everything') 64-bit
Writing library : libebml v1.4.2 + libmatroska v1.6.4
IMDB : tt4971144
TMDB : tv/66830
TVDB : 306391

Video
ID : 1
Format : AVC
Format/Info : Advanced Video Codec
Format profile : High@L4.1
Format settings : CABAC / 4 Ref Frames
Format settings, CABAC : Yes
Format settings, Reference frames : 4 frames
Codec ID : V_MPEG4/ISO/AVC
Duration : 42 min 2 s
Bit rate mode : Variable
Bit rate : 27.0 Mb/s
Maximum bit rate : 37.0 Mb/s
Width : 1 920 pixels
Height : 1 080 pixels
Display aspect ratio : 16:9
Frame rate mode : Constant
Frame rate : 23.976 (24000/1001) FPS
Color space : YUV
Chroma subsampling : 4:2:0
Bit depth : 8 bits
Scan type : Progressive
Bits/(Pixel*Frame) : 0.542
Stream size : 7.91 GiB (89%)
Default : Yes
Forced : No

Audio
ID : 2
Format : DTS XLL
Format/Info : Digital Theater Systems
Commercial name : DTS-HD Master Audio
Codec ID : A_DTS
Duration : 42 min 2 s
Bit rate mode : Variable
Bit rate : 3 314 kb/s
Channel(s) : 6 channels
Channel layout : C L R Ls Rs LFE
Sampling rate : 48.0 kHz
Frame rate : 93.750 FPS (512 SPF)
Bit depth : 24 bits
Compression mode : Lossless
Stream size : 997 MiB (11%)
Title : DTS-HD MA 5.1
Language : English
Default : Yes
Forced : No

Text #1
ID : 3
Format : PGS
Codec ID : S_HDMV/PGS
Codec ID/Info : Picture based subtitle format used on BDs/HD-DVDs
Duration : 41 min 48 s
Bit rate : 51.2 kb/s
Frame rate : 0.547 FPS
Count of elements : 1372
Stream size : 15.3 MiB (0%)
Title : English (SDH)
Language : English
Default : No
Forced : No

Text #2
ID : 4
Format : PGS
Codec ID : S_HDMV/PGS
Codec ID/Info : Picture based subtitle format used on BDs/HD-DVDs
Duration : 41 min 10 s
Bit rate : 47.7 kb/s
Frame rate : 0.524 FPS
Count of elements : 1294
Stream size : 14.1 MiB (0%)
Title : Spanish (Latin American)
Language : Spanish
Default : No
Forced : No

Menu
00:00:00.000 : en:Chapter 1
00:04:56.796 : en:Chapter 2
00:09:31.654 : en:Chapter 3
00:20:25.516 : en:Chapter 4
00:25:53.969 : en:Chapter 5
00:41:19.185 : en:Chapter 6





Greenleaf S01E08


Greenleaf S01E08


Greenleaf S01E08


Greenleaf S01E08


Greenleaf S01E08

All episodes