Featured TV Shows


Grey's Anatomy S15E01

Posted By: Tavaz
SD / HDTV IMDb
Grey's Anatomy S15E01

Grey's Anatomy S15E01
HDTV | MKV | 1280x716 | English | H264 @ 2485 kbps | AC-3 @ 384 kbps | 42 min 17 s | 869 MiB
Genre: Drama

Follows the personal and professional lives of a group of doctors at Seattle’s Grey Sloan Memorial Hospital.

Greys.Anatomy.S15E01.HDTV.x264-KILLERS-dut.srt (75.2 KB)
Greys.Anatomy.S15E03.HDTV_X264-KILLERS-dut.srt (73.8 KB)
Greys.Anatomy.S15E02.HDTV.x264-KILLERS.mkv (263.1 MB)
Greys.Anatomy.S15E07.HDTV.x264-KILLERS.mkv (243.1 MB)
Greys.Anatomy.S15E08.HDTV.x264-KILLERS-dut.srt (60.0 KB)
Greys.Anatomy.S15E01.HDTV.x264-KILLERS.mkv (320.3 MB)
Greys.Anatomy.S15E03.HDTV_X264-KILLERS.mkv (279.0 MB)
Greys.Anatomy.S15E04.HDTV.x264-KILLERS.mkv (271.6 MB)
Greys.Anatomy.S15E08.HDTV.x264-KILLERS.mkv (238.6 MB)
Greys.Anatomy.S15E02.HDTV.x264-KILLERS-dut.srt (69.1 KB)
Greys.Anatomy.S15E05.HDTV.x264-KILLERS-dut.srt (64.7 KB)
Greys.Anatomy.S15E05.HDTV.x264-KILLERS.mkv (285.3 MB)
Greys.Anatomy.S15E04.HDTV.x264-KILLERS-dut.srt (72.4 KB)
Greys.Anatomy.S15E06.720p.HDTV.x264-KILLERS.srt (63.0 KB)
Greys.Anatomy.S15E07.HDTV.x264-KILLERS-dut.srt (66.3 KB)
Greys.Anatomy.S15E06.720p.HDTV.x264-KILLERS.mkv (868.6 MB)



General
Unique ID : 55258966526596121523189969436583288613 (0x29927D65B12508277A3E909068A65F25)
Complete name : ./Greys.Anatomy.S15E06.720p.HDTV.x264-KILLERS.mkv
Format : Matroska
Format version : Version 4 / Version 2
File size : 869 MiB
Duration : 42 min 17 s
Overall bit rate : 2 871 kb/s
Encoded date : UTC 2018-11-01 02:26:46
Writing application : mkvmerge v8.8.0 ('Wind at my back') 64bit
Writing library : libebml v1.3.3 + libmatroska v1.4.4

Video
ID : 1
Format : AVC
Format/Info : Advanced Video Codec
Format profile : High@L4.1
Format settings : CABAC / 5 Ref Frames
Format settings, CABAC : Yes
Format settings, RefFrames : 5 frames
Codec ID : V_MPEG4/ISO/AVC
Duration : 42 min 17 s
Bit rate : 2 485 kb/s
Width : 1 280 pixels
Height : 716 pixels
Display aspect ratio : 16:9
Frame rate mode : Constant
Frame rate : 23.976 (24000/1001) FPS
Color space : YUV
Chroma subsampling : 4:2:0
Bit depth : 8 bits
Scan type : Progressive
Bits/(Pixel*Frame) : 0.113
Stream size : 752 MiB (87%)
Writing library : x264 core 157 r2935 545de2f
Encoding settings : cabac=1 / ref=5 / deblock=1:0:0 / analyse=0x3:0x113 / me=hex / subme=8 / psy=1 / psy_rd=1.00:0.00 / mixed_ref=1 / me_range=16 / chroma_me=1 / trellis=2 / 8x8dct=1 / cqm=0 / deadzone=21,11 / fast_pskip=1 / chroma_qp_offset=-2 / threads=22 / lookahead_threads=3 / sliced_threads=0 / nr=0 / decimate=1 / interlaced=0 / bluray_compat=0 / constrained_intra=0 / bframes=3 / b_pyramid=2 / b_adapt=1 / b_bias=0 / direct=3 / weightb=1 / open_gop=0 / weightp=2 / keyint=250 / keyint_min=23 / scenecut=40 / intra_refresh=0 / rc_lookahead=50 / rc=crf / mbtree=1 / crf=18.0 / qcomp=0.60 / qpmin=0 / qpmax=69 / qpstep=4 / ip_ratio=1.40 / aq=1:1.00
Default : Yes
Forced : No
Color range : Limited
Matrix coefficients : BT.709

Audio
ID : 2
Format : AC-3
Format/Info : Audio Coding 3
Format settings, Endianness : Big
Codec ID : A_AC3
Duration : 42 min 17 s
Bit rate mode : Constant
Bit rate : 384 kb/s
Channel(s) : 6 channels
Channel positions : Front: L C R, Side: L R, LFE
Sampling rate : 48.0 kHz
Frame rate : 31.250 FPS (1536 SPF)
Bit depth : 16 bits
Compression mode : Lossy
Stream size : 116 MiB (13%)
Service kind : Complete Main
Default : Yes
Forced : No





Grey's Anatomy S15E01


Grey's Anatomy S15E01


Grey's Anatomy S15E01


Grey's Anatomy S15E01


Grey's Anatomy S15E01

All episodes