Featured TV Shows


Grey's Anatomy S15E13

Posted By: Tavaz
720p (HD) / HDTV IMDb
Grey's Anatomy S15E13

Grey's Anatomy S15E13
HDTV | MKV | 1280x720 | English | H264 @ 2438 kbps | MPEG Audio @ 160 kbps | 41 min 52 s | 779 MiB
Genre: Drame


Meredith Grey, fille d'un chirurgien très réputé, commence son internat de première année en médecine chirurgicale dans un hôpital de Seattle. La jeune femme s'efforce de maintenir de bonnes relations avec ses camarades internes, mais dans ce métier difficile la compétition fait rage.

Greys.Anatomy.S15E14.FRENCH.720p.HDTV.x264-SH0W.mkv (660.9 MB)
Greys.Anatomy.S15E12.FRENCH.720p.HDTV.x264-SH0W.mkv (778.9 MB)
Greys.Anatomy.S15E11.FRENCH.720p.HDTV.x264-SH0W.mkv (681.2 MB)
Greys.Anatomy.S15E09.FRENCH.720p.HDTV.x264-SH0W.mkv (638.6 MB)
Greys.Anatomy.S15E13.FRENCH.720p.HDTV.x264-SH0W.mkv (729.0 MB)
Greys.Anatomy.S15E10.FRENCH.720p.HDTV.x264-SH0W.mkv (659.3 MB)



General
Unique ID : 183294365604692759339707192788825508729 (0x89E535F2C3E85D12EC199499BF758B79)
Complete name : ./Greys.Anatomy.S15E12.FRENCH.720p.HDTV.x264-SH0W.mkv
Format : Matroska
Format version : Version 4 / Version 2
File size : 779 MiB
Duration : 41 min 52 s
Overall bit rate : 2 600 kb/s
Encoded date : UTC 2019-04-13 00:21:35
Writing application : mkvmerge v32.0.0 ('Astral Progressions') 64-bit
Writing library : libebml v1.3.7 + libmatroska v1.5.0

Video
ID : 1
Format : AVC
Format/Info : Advanced Video Codec
Format profile : High@L4.1
Format settings : CABAC / 5 Ref Frames
Format settings, CABAC : Yes
Format settings, RefFrames : 5 frames
Codec ID : V_MPEG4/ISO/AVC
Duration : 41 min 52 s
Bit rate : 2 438 kb/s
Width : 1 280 pixels
Height : 720 pixels
Display aspect ratio : 16:9
Frame rate mode : Constant
Frame rate : 25.000 FPS
Color space : YUV
Chroma subsampling : 4:2:0
Bit depth : 8 bits
Scan type : Progressive
Bits/(Pixel*Frame) : 0.106
Stream size : 730 MiB (94%)
Writing library : x264 core 157 r2969 d4099dd
Encoding settings : cabac=1 / ref=5 / deblock=1:0:0 / analyse=0x3:0x133 / me=umh / subme=9 / psy=1 / psy_rd=1.00:0.00 / mixed_ref=1 / me_range=16 / chroma_me=1 / trellis=2 / 8x8dct=1 / cqm=0 / deadzone=21,11 / fast_pskip=0 / chroma_qp_offset=-2 / threads=18 / lookahead_threads=1 / sliced_threads=0 / nr=0 / decimate=1 / interlaced=0 / bluray_compat=0 / constrained_intra=0 / bframes=3 / b_pyramid=2 / b_adapt=1 / b_bias=0 / direct=3 / weightb=1 / open_gop=0 / weightp=2 / keyint=250 / keyint_min=25 / scenecut=40 / intra_refresh=0 / rc_lookahead=50 / rc=crf / mbtree=1 / crf=18.0 / qcomp=0.60 / qpmin=0 / qpmax=69 / qpstep=4 / ip_ratio=1.40 / aq=1:1.00
Default : Yes
Forced : No
Color range : Limited
Matrix coefficients : BT.709

Audio
ID : 2
Format : MPEG Audio
Format version : Version 1
Format profile : Layer 2
Codec ID : A_MPEG/L2
Codec ID/Hint : MP2
Duration : 41 min 52 s
Bit rate mode : Constant
Bit rate : 160 kb/s
Channel(s) : 2 channels
Sampling rate : 48.0 kHz
Frame rate : 41.667 FPS (1152 SPF)
Compression mode : Lossy
Stream size : 47.9 MiB (6%)
Default : Yes
Forced : No





Grey's Anatomy S15E13


Grey's Anatomy S15E13


Grey's Anatomy S15E13


Grey's Anatomy S15E13


Grey's Anatomy S15E13

All episodes