Grey's Anatomy S15E17

Posted By: Tavaz
1080p (FullHD) / WEBRip IMDb
Grey's Anatomy S15E17

Grey's Anatomy S15E17
WEBRip | MKV | 1920x1080 | English | H264 @ 9384 kbps | E-AC-3 @ 640 kbps | 43 min 3 s | 3.02 GiB
Subtitles: English
Genre: Drama

Follows the personal and professional lives of a group of doctors at Seattle’s Grey Sloan Memorial Hospital.

e2d57d59e1aa426788c31b09849c077b.mkv (3.0 GB)



General
Unique ID : 308921613094102183514391022123930141230 (0xE86823759060DBF1B55592E59D54C22E)
Complete name : ./e2d57d59e1aa426788c31b09849c077b.mkv
Format : Matroska
Format version : Version 4 / Version 2
File size : 3.02 GiB
Duration : 43 min 3 s
Overall bit rate : 10.0 Mb/s
Encoded date : UTC 2019-03-15 09:00:48
Writing application : mkvmerge v30.1.0 ('Forever And More') 64-bit
Writing library : libebml v1.3.6 + libmatroska v1.4.9

Video
ID : 1
Format : AVC
Format/Info : Advanced Video Codec
Format profile : High@L4
Format settings : CABAC / 4 Ref Frames
Format settings, CABAC : Yes
Format settings, RefFrames : 4 frames
Codec ID : V_MPEG4/ISO/AVC
Duration : 43 min 3 s
Bit rate mode : Constant
Bit rate : 9 384 kb/s
Nominal bit rate : 10 000 kb/s
Width : 1 920 pixels
Height : 1 080 pixels
Display aspect ratio : 16:9
Frame rate mode : Constant
Frame rate : 23.976 (24000/1001) FPS
Color space : YUV
Chroma subsampling : 4:2:0
Bit depth : 8 bits
Scan type : Progressive
Bits/(Pixel*Frame) : 0.189
Stream size : 2.82 GiB (94%)
Language : English
Default : Yes
Forced : No
Color range : Limited
Color primaries : BT.709
Transfer characteristics : BT.709
Matrix coefficients : BT.709

Audio
ID : 2
Format : E-AC-3
Format/Info : Enhanced Audio Coding 3
Format settings, Endianness : Big
Codec ID : A_EAC3
Duration : 43 min 3 s
Bit rate mode : Constant
Bit rate : 640 kb/s
Channel(s) : 6 channels
Channel positions : Front: L C R, Side: L R, LFE
Sampling rate : 48.0 kHz
Frame rate : 187.500 FPS (256 SPF)
Compression mode : Lossy
Stream size : 197 MiB (6%)
Language : English
Service kind : Complete Main
Default : Yes
Forced : No

Text
ID : 3
Format : UTF-8
Codec ID : S_TEXT/UTF8
Codec ID/Info : UTF-8 Plain Text
Duration : 42 min 52 s
Bit rate : 105 b/s
Count of elements : 1115
Stream size : 33.2 KiB (0%)
Title : English
Language : English
Default : No
Forced : No





Grey's Anatomy S15E17


Grey's Anatomy S15E17


Grey's Anatomy S15E17


Grey's Anatomy S15E17


Grey's Anatomy S15E17

All episodes