Featured TV Shows


Grey's Anatomy S17E16

Posted By: Tavaz
720p (HD) / WEBRip IMDb
Grey's Anatomy S17E16

Grey's Anatomy S17E16
WEBRip | MKV | 1280x720 | English | H264 @ 3694 kbps | E-AC-3 @ 640 kbps | 42 min 25 s | 1.29 GiB
Subtitles: English
Genre: Drama


Follows the personal and professional lives of a group of doctors at Seattle’s Grey Sloan Memorial Hospital.

8a8dec38af9c4d00ae663efbd0de7c19.mkv (1.3 GB)



General
Unique ID : 260312215045058712452097206549159043123 (0xC3D64F199BC721E2F030851524076033)
Complete name : ./8a8dec38af9c4d00ae663efbd0de7c19.mkv
Format : Matroska
Format version : Version 4 / Version 2
File size : 1.29 GiB
Duration : 42 min 25 s
Overall bit rate : 4 337 kb/s
Encoded date : UTC 2021-05-28 04:29:24
Writing application : mkvmerge v57.0.0 ('Till The End') 64-bit
Writing library : libebml v1.4.2 + libmatroska v1.6.4

Video
ID : 1
Format : AVC
Format/Info : Advanced Video Codec
Format profile : High@L3.1
Format settings : CABAC / 4 Ref Frames
Format settings, CABAC : Yes
Format settings, RefFrames : 4 frames
Codec ID : V_MPEG4/ISO/AVC
Duration : 42 min 25 s
Bit rate mode : Constant
Bit rate : 3 695 kb/s
Nominal bit rate : 6 000 kb/s
Width : 1 280 pixels
Height : 720 pixels
Display aspect ratio : 16:9
Frame rate mode : Constant
Frame rate : 23.976 (24000/1001) FPS
Color space : YUV
Chroma subsampling : 4:2:0
Bit depth : 8 bits
Scan type : Progressive
Bits/(Pixel*Frame) : 0.167
Stream size : 1.09 GiB (85%)
Language : English
Default : Yes
Forced : No
Color range : Limited
Color primaries : BT.709
Transfer characteristics : BT.709
Matrix coefficients : BT.709

Audio
ID : 2
Format : E-AC-3
Format/Info : Enhanced Audio Coding 3
Format settings, Endianness : Big
Codec ID : A_EAC3
Duration : 42 min 25 s
Bit rate mode : Constant
Bit rate : 640 kb/s
Channel(s) : 6 channels
Channel positions : Front: L C R, Side: L R, LFE
Sampling rate : 48.0 kHz
Frame rate : 187.500 FPS (256 SPF)
Compression mode : Lossy
Stream size : 194 MiB (15%)
Language : English
Service kind : Complete Main
Default : Yes
Forced : No

Text
ID : 3
Format : UTF-8
Codec ID : S_TEXT/UTF8
Codec ID/Info : UTF-8 Plain Text
Duration : 42 min 10 s
Bit rate : 97 b/s
Count of elements : 1004
Stream size : 30.0 KiB (0%)
Title : English
Language : English
Default : No
Forced : No





Grey's Anatomy S17E16


Grey's Anatomy S17E16


Grey's Anatomy S17E16


Grey's Anatomy S17E16


Grey's Anatomy S17E16

All episodes