Featured TV Shows


Grey's Anatomy S17E17

Posted By: Tavaz
1080p (FullHD) / WEBRip IMDb
Grey's Anatomy S17E17

Grey's Anatomy S17E17
WEBRip | MKV | 1920x1080 | English | H264 @ 9326 kbps | E-AC-3 @ 640 kbps | 43 min 32 s | 3.03 GiB
Subtitles: English
Genre: Drama


Follows the personal and professional lives of a group of doctors at Seattle’s Grey Sloan Memorial Hospital.

fdb8496c655748608a6173ee05efaf9e.mkv (3.0 GB)



General
Unique ID : 279085973613851272665776121498404145730 (0xD1F600DC78DF9D4E6688B52B5EB04A42)
Complete name : ./fdb8496c655748608a6173ee05efaf9e.mkv
Format : Matroska
Format version : Version 4 / Version 2
File size : 3.03 GiB
Duration : 43 min 32 s
Overall bit rate : 9 969 kb/s
Encoded date : UTC 2021-06-04 13:24:26
Writing application : mkvmerge v19.0.0 ('Brave Captain') 64-bit
Writing library : libebml v1.3.5 + libmatroska v1.4.8

Video
ID : 1
Format : AVC
Format/Info : Advanced Video Codec
Format profile : High@L4
Format settings : CABAC / 4 Ref Frames
Format settings, CABAC : Yes
Format settings, RefFrames : 4 frames
Codec ID : V_MPEG4/ISO/AVC
Duration : 43 min 32 s
Bit rate mode : Constant
Bit rate : 9 327 kb/s
Nominal bit rate : 10 000 kb/s
Width : 1 920 pixels
Height : 1 080 pixels
Display aspect ratio : 16:9
Frame rate mode : Constant
Frame rate : 23.976 (24000/1001) FPS
Color space : YUV
Chroma subsampling : 4:2:0
Bit depth : 8 bits
Scan type : Progressive
Bits/(Pixel*Frame) : 0.188
Stream size : 2.84 GiB (94%)
Default : Yes
Forced : No
Color range : Limited
Color primaries : BT.709
Transfer characteristics : BT.709
Matrix coefficients : BT.709

Audio
ID : 2
Format : E-AC-3
Format/Info : Enhanced Audio Coding 3
Format settings, Endianness : Big
Codec ID : A_EAC3
Duration : 43 min 32 s
Bit rate mode : Constant
Bit rate : 640 kb/s
Channel(s) : 6 channels
Channel positions : Front: L C R, Side: L R, LFE
Sampling rate : 48.0 kHz
Frame rate : 187.500 FPS (256 SPF)
Compression mode : Lossy
Stream size : 199 MiB (6%)
Language : English
Service kind : Complete Main
Default : Yes
Forced : No

Text
ID : 3
Format : UTF-8
Codec ID : S_TEXT/UTF8
Codec ID/Info : UTF-8 Plain Text
Duration : 43 min 19 s
Bit rate : 94 b/s
Count of elements : 1007
Stream size : 29.9 KiB (0%)
Title : English (SDH)
Language : English
Default : No
Forced : No





Grey's Anatomy S17E17


Grey's Anatomy S17E17


Grey's Anatomy S17E17


Grey's Anatomy S17E17


Grey's Anatomy S17E17

All episodes