Featured TV Shows


Grey's Anatomy S17E17

Posted By: Tavaz
720p (HD) / WEBRip IMDb
Grey's Anatomy S17E17

Grey's Anatomy S17E17
WEBRip | MKV | 1280x720 | English | H264 @ 4388 kbps | E-AC-3 @ 640 kbps | 43 min 32 s | 1.53 GiB
Subtitles: English
Genre: Drama


Follows the personal and professional lives of a group of doctors at Seattle’s Grey Sloan Memorial Hospital.

11a704873c014bd1855981a09535fb91.mkv (1.5 GB)



General
Unique ID : 158246730455337000703445072460639149088 (0x770D3630906F8532E4FAB4EBF0509C20)
Complete name : ./11a704873c014bd1855981a09535fb91.mkv
Format : Matroska
Format version : Version 4 / Version 2
File size : 1.53 GiB
Duration : 43 min 32 s
Overall bit rate : 5 030 kb/s
Encoded date : UTC 2021-06-04 13:24:56
Writing application : mkvmerge v19.0.0 ('Brave Captain') 64-bit
Writing library : libebml v1.3.5 + libmatroska v1.4.8

Video
ID : 1
Format : AVC
Format/Info : Advanced Video Codec
Format profile : High@L3.1
Format settings : CABAC / 4 Ref Frames
Format settings, CABAC : Yes
Format settings, RefFrames : 4 frames
Codec ID : V_MPEG4/ISO/AVC
Duration : 43 min 32 s
Bit rate mode : Constant
Bit rate : 4 388 kb/s
Nominal bit rate : 6 000 kb/s
Width : 1 280 pixels
Height : 720 pixels
Display aspect ratio : 16:9
Frame rate mode : Constant
Frame rate : 23.976 (24000/1001) FPS
Color space : YUV
Chroma subsampling : 4:2:0
Bit depth : 8 bits
Scan type : Progressive
Bits/(Pixel*Frame) : 0.199
Stream size : 1.33 GiB (87%)
Default : Yes
Forced : No
Color range : Limited
Color primaries : BT.709
Transfer characteristics : BT.709
Matrix coefficients : BT.709

Audio
ID : 2
Format : E-AC-3
Format/Info : Enhanced Audio Coding 3
Format settings, Endianness : Big
Codec ID : A_EAC3
Duration : 43 min 32 s
Bit rate mode : Constant
Bit rate : 640 kb/s
Channel(s) : 6 channels
Channel positions : Front: L C R, Side: L R, LFE
Sampling rate : 48.0 kHz
Frame rate : 187.500 FPS (256 SPF)
Compression mode : Lossy
Stream size : 199 MiB (13%)
Language : English
Service kind : Complete Main
Default : Yes
Forced : No

Text
ID : 3
Format : UTF-8
Codec ID : S_TEXT/UTF8
Codec ID/Info : UTF-8 Plain Text
Duration : 43 min 19 s
Bit rate : 94 b/s
Count of elements : 1007
Stream size : 29.9 KiB (0%)
Title : English (SDH)
Language : English
Default : No
Forced : No





Grey's Anatomy S17E17


Grey's Anatomy S17E17


Grey's Anatomy S17E17


Grey's Anatomy S17E17


Grey's Anatomy S17E17

All episodes