Featured TV Shows


Marvel's Guardians of the Galaxy S01E02

Posted By: Tavaz
Marvel's Guardians of the Galaxy S01E02

Marvel's Guardians of the Galaxy S01E02
MOV | 1280x720 | H264 @ 926 kbps | AAC @ 79 kbps | 22 min 6 s | 160 MiB
Genre: Animation

Peter Quill is Star-Lord, the brash adventurer who, to save the universe from its greatest threats, joins forces with a quartet of disparate misfits — fan-favorite Rocket Raccoon, a tree-like humanoid named Groot, the enigmatic, expert fighter Gamora and the rough edged warrior Drax the Destroyer.

5551cb912711cd5f117239bdf0198f5eb5bcd34f.mp4 (159.7 MB)



General
Complete name : ./5551cb912711cd5f117239bdf0198f5eb5bcd34f.mp4
Format : MPEG-4
Format profile : Base Media
Codec ID : isom (isom/iso2/avc1/mp41)
File size : 160 MiB
Duration : 22 min 6 s
Overall bit rate mode : Variable
Overall bit rate : 1 010 kb/s
Encoded date : UTC 2015-09-28 13:27:43
Tagged date : UTC 2015-09-28 13:27:43
Writing application : Lavf51.12.1

Video
ID : 1
Format : AVC
Format/Info : Advanced Video Codec
Format profile : Baseline@L1.3
Format settings : 1 Ref Frames
Format settings, CABAC : No
Format settings, RefFrames : 1 frame
Format settings, GOP : M=1, N=12
Codec ID : avc1
Codec ID/Info : Advanced Video Coding
Duration : 22 min 6 s
Bit rate : 926 kb/s
Width : 1 280 pixels
Height : 720 pixels
Display aspect ratio : 16:9
Frame rate mode : Constant
Frame rate : 23.976 (24000/1001) FPS
Color space : YUV
Chroma subsampling : 4:2:0
Bit depth : 8 bits
Scan type : Progressive
Bits/(Pixel*Frame) : 0.042
Stream size : 146 MiB (92%)
Encoded date : UTC 2015-09-28 13:27:43
Tagged date : UTC 2015-09-28 13:27:43

Audio
ID : 2
Format : AAC
Format/Info : Advanced Audio Codec
Format profile : LC
Codec ID : mp4a-40-2
Duration : 22 min 6 s
Bit rate mode : Variable
Bit rate : 80.0 kb/s
Channel(s) : 2 channels
Channel positions : Front: L R
Sampling rate : 44.1 kHz
Frame rate : 43.066 FPS (1024 SPF)
Compression mode : Lossy
Stream size : 12.6 MiB (8%)
Encoded date : UTC 2015-09-28 13:27:43
Tagged date : UTC 2015-09-28 13:27:43





Marvel's Guardians of the Galaxy S01E02


Marvel's Guardians of the Galaxy S01E02


Marvel's Guardians of the Galaxy S01E02


Marvel's Guardians of the Galaxy S01E02


Marvel's Guardians of the Galaxy S01E02

All episodes