Featured TV Shows


Marvel's Guardians of the Galaxy S01E06

Posted By: Tavaz
Marvel's Guardians of the Galaxy S01E06

Marvel's Guardians of the Galaxy S01E06
AVI | 1280x720 | MP4V-ES @ 1849 kbps | MPEG Audio @ 131 kbps | 22 min 7 s | 315 MiB
Genre: Animation

Peter Quill is Star-Lord, the brash adventurer who, to save the universe from its greatest threats, joins forces with a quartet of disparate misfits — fan-favorite Rocket Raccoon, a tree-like humanoid named Groot, the enigmatic, expert fighter Gamora and the rough edged warrior Drax the Destroyer.

d7871e1d2451593f94a134c9d3e8f582881a8119.avi (315.4 MB)



General
Complete name : ./d7871e1d2451593f94a134c9d3e8f582881a8119.avi
Format : AVI
Format/Info : Audio Video Interleave
File size : 315 MiB
Duration : 22 min 7 s
Overall bit rate mode : Variable
Overall bit rate : 1 994 kb/s
Movie name : Guardians of the Galaxy S01E06 - RMTeam, Rapidmoviez.com
Writing application : Lavf56.40.100

Video
ID : 0
Format : MPEG-4 Visual
Format profile : Simple@L1
Format settings, BVOP : No
Format settings, QPel : No
Format settings, GMC : No warppoints
Format settings, Matrix : Default (H.263)
Codec ID : XVID
Codec ID/Hint : XviD
Duration : 22 min 7 s
Bit rate : 1 850 kb/s
Width : 1 280 pixels
Height : 720 pixels
Display aspect ratio : 16:9
Frame rate : 23.976 (24000/1001) FPS
Color space : YUV
Chroma subsampling : 4:2:0
Bit depth : 8 bits
Scan type : Progressive
Compression mode : Lossy
Bits/(Pixel*Frame) : 0.084
Stream size : 293 MiB (93%)
Title : H.264
Writing library : Lavc56.46.101

Audio
ID : 1
Format : MPEG Audio
Format version : Version 1
Format profile : Layer 3
Format settings : Joint stereo
Mode : Joint stereo
Codec ID : 55
Codec ID/Hint : MP3
Duration : 22 min 7 s
Bit rate mode : Variable
Bit rate : 131 kb/s
Channel(s) : 2 channels
Sampling rate : 48.0 kHz
Compression mode : Lossy
Stream size : 20.7 MiB (7%)
Alignment : Aligned on interleaves
Interleave, duration : 24 ms (0.58 video frame)
Title : DD5.1
Writing library : LAME3.99.5





Marvel's Guardians of the Galaxy S01E06


Marvel's Guardians of the Galaxy S01E06


Marvel's Guardians of the Galaxy S01E06


Marvel's Guardians of the Galaxy S01E06


Marvel's Guardians of the Galaxy S01E06

All episodes