Featured TV Shows


Marvel's Guardians of the Galaxy S01E16

Posted By: Tavaz
720p (HD) / WEBRip IMDb
Marvel's Guardians of the Galaxy S01E16

Marvel's Guardians of the Galaxy S01E16
WEBRip | MOV | 1280x720 | English | H264 @ 1002 kbps | AAC @ 127 kbps | 22 min 3 s | 179 MiB
Genre: Animation

Peter Quill is Star-Lord, the brash adventurer who, to save the universe from its greatest threats, joins forces with a quartet of disparate misfits — fan-favorite Rocket Raccoon, a tree-like humanoid named Groot, the enigmatic, expert fighter Gamora and the rough edged warrior Drax the Destroyer.

7ecc6d153a62c56127a72c794e82994024fe82b1.srt (30.9 KB)
7ecc6d153a62c56127a72c794e82994024fe82b1.mp4 (179.1 MB)



General
Complete name : ./7ecc6d153a62c56127a72c794e82994024fe82b1.mp4
Format : MPEG-4
Format profile : Base Media
Codec ID : isom (isom/avc1)
File size : 179 MiB
Duration : 22 min 3 s
Overall bit rate mode : Variable
Overall bit rate : 1 135 kb/s
Encoded date : UTC 2016-03-27 09:26:32
Tagged date : UTC 2016-03-27 09:26:32

Video
ID : 1
Format : AVC
Format/Info : Advanced Video Codec
Format profile : High@L4.1
Format settings : CABAC / 5 Ref Frames
Format settings, CABAC : Yes
Format settings, RefFrames : 5 frames
Codec ID : avc1
Codec ID/Info : Advanced Video Coding
Duration : 22 min 3 s
Bit rate : 1 003 kb/s
Maximum bit rate : 4 009 kb/s
Width : 1 280 pixels
Height : 720 pixels
Display aspect ratio : 16:9
Frame rate mode : Constant
Frame rate : 24.000 FPS
Color space : YUV
Chroma subsampling : 4:2:0
Bit depth : 8 bits
Scan type : Progressive
Bits/(Pixel*Frame) : 0.045
Stream size : 158 MiB (88%)
Writing library : x264 core 148 r2665 a01e339
Encoding settings : cabac=1 / ref=5 / deblock=1:0:0 / analyse=0x3:0x113 / me=umh / subme=8 / psy=1 / psy_rd=1.00:0.00 / mixed_ref=1 / me_range=16 / chroma_me=1 / trellis=1 / 8x8dct=1 / cqm=0 / deadzone=21,11 / fast_pskip=1 / chroma_qp_offset=-2 / threads=6 / lookahead_threads=1 / sliced_threads=0 / nr=0 / decimate=1 / interlaced=0 / bluray_compat=0 / constrained_intra=0 / bframes=3 / b_pyramid=2 / b_adapt=2 / b_bias=0 / direct=3 / weightb=1 / open_gop=0 / weightp=2 / keyint=240 / keyint_min=24 / scenecut=40 / intra_refresh=0 / rc_lookahead=50 / rc=crf / mbtree=1 / crf=23.0 / qcomp=0.60 / qpmin=0 / qpmax=69 / qpstep=4 / vbv_maxrate=31250 / vbv_bufsize=31250 / crf_max=0.0 / nal_hrd=none / filler=0 / ip_ratio=1.40 / aq=1:1.00
Encoded date : UTC 2016-03-27 09:26:32
Tagged date : UTC 2016-03-27 09:26:35
Color range : Limited
Matrix coefficients : BT.709

Audio
ID : 2
Format : AAC
Format/Info : Advanced Audio Codec
Format profile : LC
Codec ID : mp4a-40-2
Duration : 22 min 3 s
Bit rate mode : Variable
Bit rate : 128 kb/s
Maximum bit rate : 144 kb/s
Channel(s) : 2 channels
Channel positions : Front: L R
Sampling rate : 48.0 kHz
Frame rate : 46.875 FPS (1024 SPF)
Compression mode : Lossy
Stream size : 20.2 MiB (11%)
Language : English
Encoded date : UTC 2016-03-27 08:58:35
Tagged date : UTC 2016-03-27 09:26:35





Marvel's Guardians of the Galaxy S01E16


Marvel's Guardians of the Galaxy S01E16


Marvel's Guardians of the Galaxy S01E16


Marvel's Guardians of the Galaxy S01E16


Marvel's Guardians of the Galaxy S01E16

All episodes