Featured TV Shows


Marvel's Guardians of the Galaxy S01E18

Posted By: Tavaz
720p (HD) / WEB-DL IMDb
Marvel's Guardians of the Galaxy S01E18

Marvel's Guardians of the Galaxy S01E18
WEB-DL | MKV | 1280x720 | English / English | H264 @ 3822 kbps | AC-3 @ 384 kbps | 22 min 7 s | 691 MiB
Subtitles: English
Genre: Animation


Peter Quill is Star-Lord, the brash adventurer who, to save the universe from its greatest threats, joins forces with a quartet of disparate misfits — fan-favorite Rocket Raccoon, a tree-like humanoid named Groot, the enigmatic, expert fighter Gamora and the rough edged warrior Drax the Destroyer.

7150dda9880bd4c4524b829c4b71f8b7cc5065dc.mkv (690.7 MB)



General
Unique ID : 181903308178407498996358570991123823408 (0x88D94D85A31548A5B58390DC4401FB30)
Complete name : ./7150dda9880bd4c4524b829c4b71f8b7cc5065dc.mkv
Format : Matroska
Format version : Version 2
File size : 691 MiB
Duration : 22 min 7 s
Overall bit rate : 4 366 kb/s
Encoded date : UTC 2016-04-12 19:56:18
Writing application : mkvmerge v9.0.1 ('Obstacles') 64bit
Writing library : libebml v1.3.3 + libmatroska v1.4.4

Video
ID : 1
Format : AVC
Format/Info : Advanced Video Codec
Format profile : High@L3.1
Format settings : 2 Ref Frames
Format settings, CABAC : No
Format settings, RefFrames : 2 frames
Codec ID : V_MPEG4/ISO/AVC
Duration : 22 min 7 s
Bit rate : 3 823 kb/s
Width : 1 280 pixels
Height : 720 pixels
Display aspect ratio : 16:9
Frame rate mode : Constant
Frame rate : 23.976 (24000/1001) FPS
Color space : YUV
Chroma subsampling : 4:2:0
Bit depth : 8 bits
Scan type : Progressive
Bits/(Pixel*Frame) : 0.173
Stream size : 605 MiB (88%)
Title : H.264
Default : Yes
Forced : No
Color range : Limited
Color primaries : BT.709
Transfer characteristics : BT.709
Matrix coefficients : BT.709

Audio #1
ID : 2
Format : AC-3
Format/Info : Audio Coding 3
Format settings, Endianness : Big
Codec ID : A_AC3
Duration : 22 min 7 s
Bit rate mode : Constant
Bit rate : 384 kb/s
Channel(s) : 6 channels
Channel positions : Front: L C R, Side: L R, LFE
Sampling rate : 48.0 kHz
Frame rate : 31.250 FPS (1536 SPF)
Bit depth : 16 bits
Compression mode : Lossy
Stream size : 60.7 MiB (9%)
Title : DD5.1
Language : English
Service kind : Complete Main
Default : Yes
Forced : No

Audio #2
ID : 3
Format : AAC
Format/Info : Advanced Audio Codec
Format profile : LC
Codec ID : A_AAC-2
Duration : 22 min 7 s
Bit rate : 157 kb/s
Channel(s) : 2 channels
Channel positions : Front: L R
Sampling rate : 48.0 kHz
Frame rate : 46.875 FPS (1024 SPF)
Compression mode : Lossy
Stream size : 24.8 MiB (4%)
Title : AAC2.0
Language : English
Default : No
Forced : No

Text
ID : 4
Format : UTF-8
Codec ID : S_TEXT/UTF8
Codec ID/Info : UTF-8 Plain Text
Duration : 21 min 29 s
Bit rate : 78 b/s
Count of elements : 397
Stream size : 12.4 KiB (0%)
Title : CC
Language : English
Default : No
Forced : No





Marvel's Guardians of the Galaxy S01E18


Marvel's Guardians of the Galaxy S01E18


Marvel's Guardians of the Galaxy S01E18


Marvel's Guardians of the Galaxy S01E18


Marvel's Guardians of the Galaxy S01E18

All episodes