Featured TV Shows


Marvel's Guardians of the Galaxy S03E07

Posted By: Tavaz
SD / WEB-DL IMDb
Marvel's Guardians of the Galaxy S03E07

Marvel's Guardians of the Galaxy S03E07
WEB-DL | MOV | 720x404 | English | H264 @ 609 kbps | AAC @ 127 kbps | 22 min 3 s | 117 MiB
Genre: Animazione

Peter Quill is Star-Lord, the brash adventurer who, to save the universe from its greatest threats, joins forces with a quartet of disparate misfits — fan-favorite Rocket Raccoon, a tree-like humanoid named Groot, the enigmatic, expert fighter Gamora and the rough edged warrior Drax the Destroyer.

Guardians.of.the.Galaxy.S03E07.Sisters.Are.Doing.It.for.Themselves.WEB-DL.x264.AAC.mp4 (117.0 MB)



General
Complete name : ./Guardians.of.the.Galaxy.S03E07.Sisters.Are.Doing.It.for.Themselves.WEB-DL.x264.AAC.mp4
Format : MPEG-4
Format profile : Base Media
Codec ID : isom (isom/avc1)
File size : 117 MiB
Duration : 22 min 3 s
Overall bit rate mode : Variable
Overall bit rate : 742 kb/s
Encoded date : UTC 2018-04-09 09:26:27
Tagged date : UTC 2018-04-09 09:26:27

Video
ID : 1
Format : AVC
Format/Info : Advanced Video Codec
Format profile : High@L3.1
Format settings : CABAC / 5 Ref Frames
Format settings, CABAC : Yes
Format settings, RefFrames : 5 frames
Codec ID : avc1
Codec ID/Info : Advanced Video Coding
Duration : 22 min 3 s
Bit rate : 610 kb/s
Maximum bit rate : 4 179 kb/s
Width : 720 pixels
Height : 404 pixels
Display aspect ratio : 16:9
Frame rate mode : Constant
Frame rate : 23.976 (24000/1001) FPS
Color space : YUV
Chroma subsampling : 4:2:0
Bit depth : 8 bits
Scan type : Progressive
Bits/(Pixel*Frame) : 0.087
Stream size : 96.2 MiB (82%)
Writing library : x264 core 155 r2901 7d0ff22
Encoding settings : cabac=1 / ref=5 / deblock=1:0:0 / analyse=0x3:0x113 / me=hex / subme=8 / psy=1 / psy_rd=1.00:0.00 / mixed_ref=1 / me_range=16 / chroma_me=1 / trellis=2 / 8x8dct=1 / cqm=0 / deadzone=21,11 / fast_pskip=1 / chroma_qp_offset=-2 / threads=12 / lookahead_threads=2 / sliced_threads=0 / nr=0 / decimate=1 / interlaced=0 / bluray_compat=0 / constrained_intra=0 / bframes=3 / b_pyramid=2 / b_adapt=1 / b_bias=0 / direct=3 / weightb=1 / open_gop=0 / weightp=2 / keyint=240 / keyint_min=23 / scenecut=40 / intra_refresh=0 / rc_lookahead=50 / rc=crf / mbtree=1 / crf=20.0 / qcomp=0.60 / qpmin=0 / qpmax=69 / qpstep=4 / ip_ratio=1.40 / aq=1:1.00
Encoded date : UTC 2018-04-09 09:26:27
Tagged date : UTC 2018-04-09 09:26:29
Color range : Limited
Matrix coefficients : BT.709

Audio
ID : 2
Format : AAC
Format/Info : Advanced Audio Codec
Format profile : LC
Codec ID : mp4a-40-2
Duration : 22 min 3 s
Bit rate mode : Variable
Bit rate : 128 kb/s
Maximum bit rate : 148 kb/s
Channel(s) : 2 channels
Channel positions : Front: L R
Sampling rate : 48.0 kHz
Frame rate : 46.875 FPS (1024 SPF)
Compression mode : Lossy
Stream size : 20.2 MiB (17%)
Language : English
Encoded date : UTC 2018-04-09 09:17:55
Tagged date : UTC 2018-04-09 09:26:29





Marvel's Guardians of the Galaxy S03E07


Marvel's Guardians of the Galaxy S03E07


Marvel's Guardians of the Galaxy S03E07


Marvel's Guardians of the Galaxy S03E07


Marvel's Guardians of the Galaxy S03E07

All episodes