Featured TV Shows


Стражи Галактики S03E21

Posted By: Tavaz
1080p (FullHD) / WEB-DL IMDb
Стражи Галактики S03E21

Стражи Галактики S03E21
WEB-DL | MKV | 1920x1080 | Russian / English | H264 @ 5120 kbps | AAC @ 576 kbps | 21 min 16 s | 952 MiB
Genre: мультфильм

Прежде чем стать Стражами, каждому из них пришлось преодолеть немало трудностей на своём пути.



«Стражи Галактики» – анимационный сериал, основанный на серии комиксов Marvel.



Питер Квилл, дерзкий авантюрист и искатель приключений, которого зрители фильма запомнили как Звездного Лорда, собирается спасать вселенную от разного рода угроз и объединяет свои усилия с квартетом весьма разношерстных персонажей.

cc6e3836ef9842d38e80aa1d6a0521ef.mkv (952.4 MB)



General
Unique ID : 218639864209508836500558240754975069163 (0xA47C819329D44FB394819783213F53EB)
Complete name : ./cc6e3836ef9842d38e80aa1d6a0521ef.mkv
Format : Matroska
Format version : Version 4 / Version 2
File size : 952 MiB
Duration : 21 min 16 s
Overall bit rate : 6 261 kb/s
Encoded date : UTC 2019-01-11 19:37:24
Writing application : mkvmerge v8.3.0 ('Over the Horizon') 64bit
Writing library : libebml v1.3.1 + libmatroska v1.4.2

Video
ID : 1
Format : AVC
Format/Info : Advanced Video Codec
Format profile : High@L4
Format settings : CABAC / 4 Ref Frames
Format settings, CABAC : Yes
Format settings, RefFrames : 4 frames
Codec ID : V_MPEG4/ISO/AVC
Duration : 21 min 16 s
Bit rate : 5 120 kb/s
Width : 1 920 pixels
Height : 1 080 pixels
Display aspect ratio : 16:9
Frame rate mode : Constant
Frame rate : 25.000 FPS
Color space : YUV
Chroma subsampling : 4:2:0
Bit depth : 8 bits
Scan type : Progressive
Bits/(Pixel*Frame) : 0.099
Stream size : 777 MiB (82%)
Writing library : x264 core 142
Encoding settings : cabac=1 / ref=3 / deblock=1:0:0 / analyse=0x3:0x113 / me=hex / subme=7 / psy=1 / psy_rd=1.00:0.00 / mixed_ref=1 / me_range=16 / chroma_me=1 / trellis=1 / 8x8dct=1 / cqm=0 / deadzone=21,11 / fast_pskip=1 / chroma_qp_offset=-2 / threads=84 / lookahead_threads=8 / sliced_threads=0 / nr=0 / decimate=1 / interlaced=0 / bluray_compat=0 / constrained_intra=0 / bframes=6 / b_pyramid=2 / b_adapt=1 / b_bias=0 / direct=1 / weightb=1 / open_gop=0 / weightp=2 / keyint=50 / keyint_min=26 / scenecut=0 / intra_refresh=0 / rc_lookahead=40 / rc=2pass / mbtree=1 / bitrate=5120 / ratetol=1.0 / qcomp=0.60 / qpmin=0 / qpmax=69 / qpstep=4 / cplxblur=20.0 / qblur=0.5 / vbv_maxrate=7680 / vbv_bufsize=20480 / nal_hrd=none / filler=0 / ip_ratio=1.40 / aq=1:1.00
Language : English
Default : Yes
Forced : Yes

Audio #1
ID : 2
Format : AAC
Format/Info : Advanced Audio Codec
Format profile : LC
Codec ID : A_AAC-2
Duration : 21 min 16 s
Bit rate : 576 kb/s
Channel(s) : 6 channels
Channel positions : Front: L C R, Side: L R, LFE
Sampling rate : 48.0 kHz
Frame rate : 46.875 FPS (1024 SPF)
Compression mode : Lossy
Stream size : 87.6 MiB (9%)
Language : Russian
Default : Yes
Forced : Yes

Audio #2
ID : 3
Format : AAC
Format/Info : Advanced Audio Codec
Format profile : LC
Codec ID : A_AAC-2
Duration : 21 min 16 s
Bit rate : 576 kb/s
Channel(s) : 6 channels
Channel positions : Front: L C R, Side: L R, LFE
Sampling rate : 48.0 kHz
Frame rate : 46.875 FPS (1024 SPF)
Compression mode : Lossy
Stream size : 87.6 MiB (9%)
Language : English
Default : No
Forced : No





Стражи Галактики S03E21


Стражи Галактики S03E21


Стражи Галактики S03E21


Стражи Галактики S03E21


Стражи Галактики S03E21

All episodes