Featured TV Shows


HAKYU HOSHIN ENGI S01E18

Posted By: Tavaz
SD / WEBRip IMDb
HAKYU HOSHIN ENGI S01E18

HAKYU HOSHIN ENGI S01E18
WEBRip | MKV | 848x480 | Japanese | H264 @ 1052 kbps | AAC @ 96 kbps | 23 min 47 s | 195 MiB
Subtitles: Portuguese, German, English, French, Spanish, Russian, Arabic, Italian
Genre: Animation

When his clan is wiped out by a beautiful demon, young Taikobo finds himself in charge of the mysterious Houshin Project. Its mission: find all immortals living in the human world and seal them away forever. But who do you trust—and whose side are you really on—when you've been trained to hunt demons by a demon?

aniurl-hhe.s01e18.web.mkv (195.0 MB)
aniurl-hhe.s01e18.web-sample.mkv (6.3 MB)



General
Unique ID : 197063163532965461314863009457811209935 (0x9440FC192013D5E9AAD75173866BBECF)
Complete name : ./aniurl-hhe.s01e18.web.mkv
Format : Matroska
Format version : Version 4 / Version 2
File size : 195 MiB
Duration : 23 min 47 s
Overall bit rate : 1 146 kb/s
Movie name : HAKYU HOSHIN ENGI Episode 18 - Watch on Crunchyroll
Encoded date : UTC 2018-05-27 06:55:04
Writing application : mkvmerge v12.0.0 ('Trust / Lust') 64bit
Writing library : libebml v1.3.4 + libmatroska v1.4.5

Video
ID : 1
Format : AVC
Format/Info : Advanced Video Codec
Format profile : Main@L3.1
Format settings : CABAC / 6 Ref Frames
Format settings, CABAC : Yes
Format settings, RefFrames : 6 frames
Codec ID : V_MPEG4/ISO/AVC
Duration : 23 min 40 s
Bit rate : 1 052 kb/s
Width : 848 pixels
Height : 480 pixels
Display aspect ratio : 16:9
Frame rate mode : Constant
Frame rate : 23.976 (24000/1001) FPS
Color space : YUV
Chroma subsampling : 4:2:0
Bit depth : 8 bits
Scan type : Progressive
Bits/(Pixel*Frame) : 0.108
Stream size : 178 MiB (91%)
Writing library : x264 core 142
Encoding settings : cabac=1 / ref=6 / deblock=1:1:1 / analyse=0x1:0x111 / me=umh / subme=8 / psy=1 / psy_rd=0.40:0.00 / mixed_ref=1 / me_range=16 / chroma_me=1 / trellis=1 / 8x8dct=0 / cqm=0 / deadzone=21,11 / fast_pskip=1 / chroma_qp_offset=-2 / threads=6 / lookahead_threads=1 / sliced_threads=0 / nr=0 / decimate=1 / interlaced=0 / bluray_compat=0 / constrained_intra=0 / bframes=5 / b_pyramid=2 / b_adapt=2 / b_bias=0 / direct=3 / weightb=1 / open_gop=0 / weightp=2 / keyint=48 / keyint_min=24 / scenecut=40 / intra_refresh=0 / rc_lookahead=48 / rc=crf / mbtree=1 / crf=17.0 / qcomp=0.60 / qpmin=0 / qpmax=69 / qpstep=4 / vbv_maxrate=2000 / vbv_bufsize=3000 / crf_max=0.0 / nal_hrd=none / filler=0 / ip_ratio=1.40 / aq=1:0.60
Language : Japanese
Default : Yes
Forced : No

Audio
ID : 2
Format : AAC
Format/Info : Advanced Audio Codec
Format profile : LC
Codec ID : A_AAC-2
Duration : 23 min 40 s
Bit rate : 96.0 kb/s
Channel(s) : 2 channels
Channel positions : Front: L R
Sampling rate : 44.1 kHz
Frame rate : 43.066 FPS (1024 SPF)
Compression mode : Lossy
Delay relative to video : -83 ms
Stream size : 16.3 MiB (8%)
Language : Japanese
Default : Yes
Forced : No

Text #1
ID : 3
Format : ASS
Codec ID : S_TEXT/ASS
Codec ID/Info : Advanced Sub Station Alpha
Duration : 23 min 28 s
Bit rate : 111 b/s
Count of elements : 274
Compression mode : Lossless
Stream size : 19.1 KiB (0%)
Title : [English (US)]
Language : English
Default : Yes
Forced : No

Text #2
ID : 4
Format : ASS
Codec ID : S_TEXT/ASS
Codec ID/Info : Advanced Sub Station Alpha
Duration : 23 min 16 s
Bit rate : 108 b/s
Count of elements : 264
Compression mode : Lossless
Stream size : 18.5 KiB (0%)
Title : [Espanol]
Language : Spanish
Default : No
Forced : No

Text #3
ID : 5
Format : ASS
Codec ID : S_TEXT/ASS
Codec ID/Info : Advanced Sub Station Alpha
Duration : 23 min 16 s
Bit rate : 108 b/s
Count of elements : 262
Compression mode : Lossless
Stream size : 18.5 KiB (0%)
Title : [Espanol (Espana)]
Language : Spanish
Default : No
Forced : No

Text #4
ID : 6
Format : ASS
Codec ID : S_TEXT/ASS
Codec ID/Info : Advanced Sub Station Alpha
Duration : 23 min 16 s
Bit rate : 121 b/s
Count of elements : 291
Compression mode : Lossless
Stream size : 20.7 KiB (0%)
Title : [Francais (France)]
Language : French
Default : No
Forced : No

Text #5
ID : 7
Format : ASS
Codec ID : S_TEXT/ASS
Codec ID/Info : Advanced Sub Station Alpha
Duration : 23 min 16 s
Bit rate : 125 b/s
Count of elements : 272
Compression mode : Lossless
Stream size : 21.4 KiB (0%)
Title : [Portugues (Brasil)]
Language : Portuguese
Default : No
Forced : No

Text #6
ID : 8
Format : ASS
Codec ID : S_TEXT/ASS
Codec ID/Info : Advanced Sub Station Alpha
Duration : 23 min 16 s
Bit rate : 133 b/s
Count of elements : 273
Compression mode : Lossless
Stream size : 22.8 KiB (0%)
Title : [Arabic]
Language : Arabic
Default : No
Forced : No

Text #7
ID : 9
Format : ASS
Codec ID : S_TEXT/ASS
Codec ID/Info : Advanced Sub Station Alpha
Duration : 23 min 16 s
Bit rate : 126 b/s
Count of elements : 310
Compression mode : Lossless
Stream size : 21.6 KiB (0%)
Title : [Italiano]
Language : Italian
Default : No
Forced : No

Text #8
ID : 10
Format : ASS
Codec ID : S_TEXT/ASS
Codec ID/Info : Advanced Sub Station Alpha
Duration : 23 min 16 s
Bit rate : 121 b/s
Count of elements : 277
Compression mode : Lossless
Stream size : 20.7 KiB (0%)
Title : [Deutsch]
Language : German
Default : No
Forced : No

Text #9
ID : 11
Format : ASS
Codec ID : S_TEXT/ASS
Codec ID/Info : Advanced Sub Station Alpha
Duration : 23 min 16 s
Bit rate : 147 b/s
Count of elements : 273
Compression mode : Lossless
Stream size : 25.1 KiB (0%)
Title : [Russian]
Language : Russian
Default : No
Forced : No





HAKYU HOSHIN ENGI S01E18


HAKYU HOSHIN ENGI S01E18


HAKYU HOSHIN ENGI S01E18


HAKYU HOSHIN ENGI S01E18


HAKYU HOSHIN ENGI S01E18

All episodes