Featured TV Shows


HAKYU HOSHIN ENGI S01E22

Posted By: Tavaz
720p (HD) / WEBRip IMDb
HAKYU HOSHIN ENGI S01E22

HAKYU HOSHIN ENGI S01E22
WEBRip | MKV | 1280x720 | Japanese | H264 @ 2804 kbps | AAC @ 128 kbps | 23 min 45 s | 497 MiB
Subtitles: Portuguese, German, English, French, Spanish, Russian, Arabic, Italian
Genre: Animation

When his clan is wiped out by a beautiful demon, young Taikobo finds himself in charge of the mysterious Houshin Project. Its mission: find all immortals living in the human world and seal them away forever. But who do you trust—and whose side are you really on—when you've been trained to hunt demons by a demon?

99df587f51f140a5b1e723971a33343b.mkv (497.1 MB)



General
Unique ID : 193827990079108481711108300614019770572 (0x91D1E9BB60271FFFA5F5CBDFE0F6E8CC)
Complete name : ./99df587f51f140a5b1e723971a33343b.mkv
Format : Matroska
Format version : Version 4 / Version 2
File size : 497 MiB
Duration : 23 min 45 s
Overall bit rate : 2 926 kb/s
Movie name : HAKYU HOSHIN ENGI Episode 22 - The Brave Warrior's Soul Is Released
Encoded date : UTC 2018-10-28 13:23:16
Writing application : mkvmerge v12.0.0 ('Trust / Lust') 64bit
Writing library : libebml v1.3.4 + libmatroska v1.4.5

Video
ID : 1
Format : AVC
Format/Info : Advanced Video Codec
Format profile : High@L4
Format settings : CABAC / 6 Ref Frames
Format settings, CABAC : Yes
Format settings, RefFrames : 6 frames
Codec ID : V_MPEG4/ISO/AVC
Duration : 23 min 40 s
Bit rate : 2 804 kb/s
Width : 1 280 pixels
Height : 720 pixels
Display aspect ratio : 16:9
Frame rate mode : Constant
Frame rate : 23.976 (24000/1001) FPS
Color space : YUV
Chroma subsampling : 4:2:0
Bit depth : 8 bits
Scan type : Progressive
Bits/(Pixel*Frame) : 0.127
Stream size : 475 MiB (96%)
Writing library : x264 core 142
Encoding settings : cabac=1 / ref=6 / deblock=1:1:1 / analyse=0x3:0x113 / me=umh / subme=8 / psy=1 / psy_rd=0.40:0.00 / mixed_ref=1 / me_range=16 / chroma_me=1 / trellis=1 / 8x8dct=1 / cqm=0 / deadzone=21,11 / fast_pskip=1 / chroma_qp_offset=-2 / threads=10 / lookahead_threads=1 / sliced_threads=0 / nr=0 / decimate=1 / interlaced=0 / bluray_compat=0 / constrained_intra=0 / bframes=3 / b_pyramid=2 / b_adapt=2 / b_bias=0 / direct=3 / weightb=1 / open_gop=0 / weightp=2 / keyint=48 / keyint_min=24 / scenecut=40 / intra_refresh=0 / rc_lookahead=48 / rc=crf / mbtree=1 / crf=15.0 / qcomp=0.60 / qpmin=0 / qpmax=69 / qpstep=4 / vbv_maxrate=4000 / vbv_bufsize=6000 / crf_max=0.0 / nal_hrd=none / filler=0 / ip_ratio=1.40 / aq=1:0.60
Language : Japanese
Default : Yes
Forced : No

Audio
ID : 2
Format : AAC
Format/Info : Advanced Audio Codec
Format profile : LC
Codec ID : A_AAC-2
Duration : 23 min 40 s
Bit rate : 128 kb/s
Channel(s) : 2 channels
Channel positions : Front: L R
Sampling rate : 44.1 kHz
Frame rate : 43.066 FPS (1024 SPF)
Compression mode : Lossy
Delay relative to video : -83 ms
Stream size : 21.7 MiB (4%)
Language : Japanese
Default : Yes
Forced : No

Text #1
ID : 3
Format : ASS
Codec ID : S_TEXT/ASS
Codec ID/Info : Advanced Sub Station Alpha
Duration : 23 min 37 s
Bit rate : 95 b/s
Count of elements : 249
Compression mode : Lossless
Stream size : 16.6 KiB (0%)
Title : [English (US)]
Language : English
Default : Yes
Forced : No

Text #2
ID : 4
Format : ASS
Codec ID : S_TEXT/ASS
Codec ID/Info : Advanced Sub Station Alpha
Duration : 23 min 27 s
Bit rate : 95 b/s
Count of elements : 241
Compression mode : Lossless
Stream size : 16.5 KiB (0%)
Title : [Espanol]
Language : Spanish
Default : No
Forced : No

Text #3
ID : 5
Format : ASS
Codec ID : S_TEXT/ASS
Codec ID/Info : Advanced Sub Station Alpha
Duration : 23 min 27 s
Bit rate : 95 b/s
Count of elements : 240
Compression mode : Lossless
Stream size : 16.5 KiB (0%)
Title : [Espanol (Espana)]
Language : Spanish
Default : No
Forced : No

Text #4
ID : 6
Format : ASS
Codec ID : S_TEXT/ASS
Codec ID/Info : Advanced Sub Station Alpha
Duration : 23 min 27 s
Bit rate : 103 b/s
Count of elements : 253
Compression mode : Lossless
Stream size : 17.8 KiB (0%)
Title : [Francais (France)]
Language : French
Default : No
Forced : No

Text #5
ID : 7
Format : ASS
Codec ID : S_TEXT/ASS
Codec ID/Info : Advanced Sub Station Alpha
Duration : 23 min 27 s
Bit rate : 107 b/s
Count of elements : 246
Compression mode : Lossless
Stream size : 18.5 KiB (0%)
Title : [Portugues (Brasil)]
Language : Portuguese
Default : No
Forced : No

Text #6
ID : 8
Format : ASS
Codec ID : S_TEXT/ASS
Codec ID/Info : Advanced Sub Station Alpha
Duration : 23 min 27 s
Bit rate : 114 b/s
Count of elements : 247
Compression mode : Lossless
Stream size : 19.6 KiB (0%)
Title : [Arabic]
Language : Arabic
Default : No
Forced : No

Text #7
ID : 9
Format : ASS
Codec ID : S_TEXT/ASS
Codec ID/Info : Advanced Sub Station Alpha
Duration : 23 min 27 s
Bit rate : 103 b/s
Count of elements : 254
Compression mode : Lossless
Stream size : 17.8 KiB (0%)
Title : [Italiano]
Language : Italian
Default : No
Forced : No

Text #8
ID : 10
Format : ASS
Codec ID : S_TEXT/ASS
Codec ID/Info : Advanced Sub Station Alpha
Duration : 23 min 27 s
Bit rate : 104 b/s
Count of elements : 246
Compression mode : Lossless
Stream size : 18.0 KiB (0%)
Title : [Deutsch]
Language : German
Default : No
Forced : No

Text #9
ID : 11
Format : ASS
Codec ID : S_TEXT/ASS
Codec ID/Info : Advanced Sub Station Alpha
Duration : 23 min 27 s
Bit rate : 127 b/s
Count of elements : 248
Compression mode : Lossless
Stream size : 21.9 KiB (0%)
Title : [Russian]
Language : Russian
Default : No
Forced : No





HAKYU HOSHIN ENGI S01E22


HAKYU HOSHIN ENGI S01E22


HAKYU HOSHIN ENGI S01E22


HAKYU HOSHIN ENGI S01E22


HAKYU HOSHIN ENGI S01E22

All episodes