Featured TV Shows


Hamilton's Pharmacopeia S01E06

Posted By: Tavaz
1080p (FullHD) / WEB-DL IMDb
Hamilton's Pharmacopeia S01E06

Hamilton's Pharmacopeia S01E06
WEB-DL | MKV | 1920x1080 | English | H264 @ 10690 kbps | E-AC-3 @ 224 kbps | 44 min 2 s | 3.36 GiB
Subtitles: English




9d1c9c339b8f47e0aecb36b478f29658.mkv (3.4 GB)



General
Unique ID : 235363848934699779299540037084825857061 (0xB1116DAED4B33BCD5DF063AE0C412C25)
Complete name : ./9d1c9c339b8f47e0aecb36b478f29658.mkv
Format : Matroska
Format version : Version 4 / Version 2
File size : 3.36 GiB
Duration : 44 min 2 s
Overall bit rate mode : Variable
Overall bit rate : 10.9 Mb/s
Encoded date : UTC 2019-12-25 13:21:08
Writing application : mkvmerge v32.0.0 ('Astral Progressions') 32-bit
Writing library : libebml v1.3.7 + libmatroska v1.5.0

Video
ID : 1
Format : AVC
Format/Info : Advanced Video Codec
Format profile : High@L4
Format settings : CABAC / 4 Ref Frames
Format settings, CABAC : Yes
Format settings, RefFrames : 4 frames
Codec ID : V_MPEG4/ISO/AVC
Duration : 44 min 2 s
Bit rate mode : Variable
Bit rate : 10.7 Mb/s
Maximum bit rate : 15.0 Mb/s
Width : 1 920 pixels
Height : 1 080 pixels
Display aspect ratio : 16:9
Frame rate mode : Constant
Frame rate : 23.976 (24000/1001) FPS
Color space : YUV
Chroma subsampling : 4:2:0
Bit depth : 8 bits
Scan type : Progressive
Bits/(Pixel*Frame) : 0.215
Stream size : 3.29 GiB (98%)
Default : Yes
Forced : No
Color range : Limited
Color primaries : BT.709
Transfer characteristics : BT.709
Matrix coefficients : BT.709

Audio
ID : 2
Format : E-AC-3
Format/Info : Enhanced Audio Coding 3
Format settings, Endianness : Big
Codec ID : A_EAC3
Duration : 44 min 2 s
Bit rate mode : Constant
Bit rate : 224 kb/s
Channel(s) : 2 channels
Channel positions : Front: L R
Sampling rate : 48.0 kHz
Frame rate : 187.500 FPS (256 SPF)
Compression mode : Lossy
Stream size : 70.6 MiB (2%)
Title : English
Language : English
Service kind : Complete Main
Default : Yes
Forced : No

Text
ID : 3
Format : UTF-8
Codec ID : S_TEXT/UTF8
Codec ID/Info : UTF-8 Plain Text
Duration : 43 min 52 s
Bit rate : 100 b/s
Count of elements : 895
Stream size : 32.3 KiB (0%)
Title : English [Full]
Language : English
Default : No
Forced : No





Hamilton's Pharmacopeia S01E06


Hamilton's Pharmacopeia S01E06


Hamilton's Pharmacopeia S01E06


Hamilton's Pharmacopeia S01E06

All episodes