Featured TV Shows


Harley Quinn S02E07

Posted By: Tavaz
1080p (FullHD) / WEB-DL IMDb
Harley Quinn S02E07

Harley Quinn S02E07
WEB-DL | MKV | 1920x1080 | English | H264 @ 4982 kbps | E-AC-3 @ 640 kbps | 22 min 55 s | 922 MiB
Subtitles: English
Genre: Animation, Comedy, Crime


Harley Quinn has finally broken things off once and for all with the Joker and attempts to make it on her own as the criminal Queenpin of Gotham City.

d4c69113beb2482ead612eb9dbb3eeb4.mkv (922.1 MB)



General
Unique ID : 249979182005175273740477191869121033627 (0xBC103D3CD921AD0728D05CC56559F59B)
Complete name : ./d4c69113beb2482ead612eb9dbb3eeb4.mkv
Format : Matroska
Format version : Version 4 / Version 2
File size : 922 MiB
Duration : 22 min 55 s
Overall bit rate : 5 624 kb/s
Encoded date : UTC 2020-05-15 13:03:00
Writing application : mkvmerge v19.0.0 ('Brave Captain') 64-bit
Writing library : libebml v1.3.5 + libmatroska v1.4.8

Video
ID : 1
Format : AVC
Format/Info : Advanced Video Codec
Format profile : Baseline@L4
Format settings : 3 Ref Frames
Format settings, CABAC : No
Format settings, RefFrames : 3 frames
Format settings, GOP : M=1, N=48
Codec ID : V_MPEG4/ISO/AVC
Duration : 22 min 55 s
Bit rate : 4 982 kb/s
Width : 1 920 pixels
Height : 1 080 pixels
Display aspect ratio : 16:9
Frame rate mode : Constant
Frame rate : 23.976 (24000/1001) FPS
Color space : YUV
Chroma subsampling : 4:2:0
Bit depth : 8 bits
Scan type : Progressive
Bits/(Pixel*Frame) : 0.100
Stream size : 817 MiB (89%)
Writing library : Zencoder Video Encoding System
Default : Yes
Forced : No
Color range : Limited
Color primaries : BT.709
Transfer characteristics : BT.709
Matrix coefficients : BT.709

Audio
ID : 2
Format : E-AC-3
Format/Info : Enhanced Audio Coding 3
Format settings, Endianness : Big
Codec ID : A_EAC3
Duration : 22 min 55 s
Bit rate mode : Constant
Bit rate : 640 kb/s
Channel(s) : 6 channels
Channel positions : Front: L C R, Side: L R, LFE
Sampling rate : 48.0 kHz
Frame rate : 187.500 FPS (256 SPF)
Compression mode : Lossy
Stream size : 105 MiB (11%)
Language : English
Service kind : Complete Main
Default : Yes
Forced : No

Text
ID : 3
Format : UTF-8
Codec ID : S_TEXT/UTF8
Codec ID/Info : UTF-8 Plain Text
Duration : 21 min 54 s
Bit rate : 98 b/s
Count of elements : 494
Stream size : 15.8 KiB (0%)
Title : English (SDH)
Language : English
Default : No
Forced : No





Harley Quinn S02E07


Harley Quinn S02E07


Harley Quinn S02E07


Harley Quinn S02E07


Harley Quinn S02E07

All episodes