Index
# A B C D E F G H I J K L M N O P Q R S T U V W Y Z
Tags
Language
Tags

Featured TV Shows


Harrow S01E01

Posted By:
720p (HD) / WEB-DL IMDb
Harrow S01E01

Harrow S01E01
WEB-DL | MKV | 1280x720 | English | H264 @ 2272 kbps | AAC @ 64 kbps | 52 min 8 s | 872 MiB
Subtitles: English
Genre: Drama

When a dark secret from this past threatens to be exposed, unorthodox and brilliant medical examiner, Doctor Daniel Harrow, must use all his forensic skills to keep it buried forever.

7b87236e79184f4ab3ce6a85d2b26197.mkv (872.1 MB)



General
Unique ID : 295598828623484219970227842492337853882 (0xDE6243787BAB20A62D895E77D45195BA)
Complete name : ./7b87236e79184f4ab3ce6a85d2b26197.mkv
Format : Matroska
Format version : Version 4 / Version 2
File size : 872 MiB
Duration : 52 min 8 s
Overall bit rate : 2 338 kb/s
Encoded date : UTC 2019-01-22 05:36:50
Writing application : mkvmerge v30.1.0 ('Forever And More') 64-bit
Writing library : libebml v1.3.6 + libmatroska v1.4.9

Video
ID : 1
Format : AVC
Format/Info : Advanced Video Codec
Format profile : High@L3.1
Format settings : CABAC / 5 Ref Frames
Format settings, CABAC : Yes
Format settings, RefFrames : 5 frames
Codec ID : V_MPEG4/ISO/AVC
Duration : 52 min 8 s
Bit rate : 2 273 kb/s
Width : 1 280 pixels
Height : 720 pixels
Display aspect ratio : 16:9
Frame rate mode : Constant
Frame rate : 25.000 FPS
Color space : YUV
Chroma subsampling : 4:2:0
Bit depth : 8 bits
Scan type : Progressive
Bits/(Pixel*Frame) : 0.099
Stream size : 847 MiB (97%)
Default : Yes
Forced : No

Audio
ID : 2
Format : AAC
Format/Info : Advanced Audio Codec
Format profile : HE-AAC / LC
Format settings : Explicit
Codec ID : A_AAC-2
Duration : 52 min 8 s
Bit rate : 64.0 kb/s
Channel(s) : 2 channels
Channel positions : Front: L R
Sampling rate : 48.0 kHz / 24.0 kHz
Frame rate : 23.438 FPS (1024 SPF)
Compression mode : Lossy
Stream size : 23.9 MiB (3%)
Language : English
Default : Yes
Forced : No

Text
ID : 3
Format : UTF-8
Codec ID : S_TEXT/UTF8
Codec ID/Info : UTF-8 Plain Text
Duration : 51 min 24 s
Bit rate : 71 b/s
Count of elements : 877
Stream size : 26.8 KiB (0%)
Title : English (SDH)
Language : English
Default : No
Forced : No





Harrow S01E01


Harrow S01E01


Harrow S01E01


Harrow S01E01


Harrow S01E01

All episodes