Index
# A B C D E F G H I J K L M N O P Q R S T U V W Y Z
Tags
Language
Tags

Featured TV Shows


Harrow S01E03

Posted By:
1080p (FullHD) / WEB-DL IMDb
Harrow S01E03

Harrow S01E03
WEB-DL | MKV | 1920x1080 | English | H264 @ 5142 kbps | AC-3 @ 384 kbps | 52 min 0 s | 2.01 GiB
Genre: Drama

When a dark secret from this past threatens to be exposed, unorthodox and brilliant medical examiner, Doctor Daniel Harrow, must use all his forensic skills to keep it buried forever.

Harrow.S01E03.Hic.Sunt.Dracones.1080p.WEB-DL.DD5.1.H264-BS.mkv (2.0 GB)



General
Unique ID : 144719712259266591260157839274185780248 (0x6CE000B3756E0C3012A3065EC462EC18)
Complete name : ./Harrow.S01E03.Hic.Sunt.Dracones.1080p.WEB-DL.DD5.1.H264-BS.mkv
Format : Matroska
Format version : Version 4 / Version 2
File size : 2.01 GiB
Duration : 52 min 0 s
Overall bit rate : 5 528 kb/s
Encoded date : UTC 2018-03-24 17:06:20
Writing application : mkvmerge v21.0.0 ('Tardigrades Will Inherit The Earth') 64-bit
Writing library : libebml v1.3.5 + libmatroska v1.4.8
Cover : Yes
Attachments : small_cover.jpg / cover.jpg / cover_land.jpg / small_cover_land.jpg

Video
ID : 1
Format : AVC
Format/Info : Advanced Video Codec
Format profile : High@L4
Format settings : CABAC / 4 Ref Frames
Format settings, CABAC : Yes
Format settings, RefFrames : 4 frames
Codec ID : V_MPEG4/ISO/AVC
Duration : 52 min 0 s
Bit rate : 5 142 kb/s
Width : 1 920 pixels
Height : 1 080 pixels
Display aspect ratio : 16:9
Frame rate mode : Constant
Frame rate : 25.000 FPS
Color space : YUV
Chroma subsampling : 4:2:0
Bit depth : 8 bits
Scan type : Progressive
Bits/(Pixel*Frame) : 0.099
Stream size : 1.87 GiB (93%)
Language : English
Default : Yes
Forced : No
Color range : Limited
Color primaries : BT.709
Transfer characteristics : BT.709
Matrix coefficients : BT.709

Audio
ID : 2
Format : AC-3
Format/Info : Audio Coding 3
Format settings, Endianness : Big
Codec ID : A_AC3
Duration : 52 min 0 s
Bit rate mode : Constant
Bit rate : 384 kb/s
Channel(s) : 6 channels
Channel positions : Front: L C R, Side: L R, LFE
Sampling rate : 48.0 kHz
Frame rate : 31.250 FPS (1536 SPF)
Bit depth : 16 bits
Compression mode : Lossy
Delay relative to video : -40 ms
Stream size : 143 MiB (7%)
Language : English
Service kind : Complete Main
Default : Yes
Forced : No





Harrow S01E03


Harrow S01E03


Harrow S01E03


Harrow S01E03


Harrow S01E03

All episodes