Index
# A B C D E F G H I J K L M N O P Q R S T U V W Y Z
Tags
Language
Tags

Featured TV Shows


Harrow S01E03

Posted By:
720p (HD) / WEB-DL IMDb
Harrow S01E03

Harrow S01E03
WEB-DL | MKV | 1280x720 | English | H264 @ 2640 kbps | AAC @ 64 kbps | 51 min 44 s | 1 001 MiB
Subtitles: English
Genre: Drama

When a dark secret from this past threatens to be exposed, unorthodox and brilliant medical examiner, Doctor Daniel Harrow, must use all his forensic skills to keep it buried forever.

6aa9f43c78724aa8a1a050d0cbb69721.mkv (1001.4 MB)



General
Unique ID : 291410690465040013360778078015959113688 (0xDB3BA851242C8A1887DEDBDC07889FD8)
Complete name : ./6aa9f43c78724aa8a1a050d0cbb69721.mkv
Format : Matroska
Format version : Version 4 / Version 2
File size : 1 001 MiB
Duration : 51 min 44 s
Overall bit rate : 2 706 kb/s
Encoded date : UTC 2019-01-22 05:38:11
Writing application : mkvmerge v30.1.0 ('Forever And More') 64-bit
Writing library : libebml v1.3.6 + libmatroska v1.4.9

Video
ID : 1
Format : AVC
Format/Info : Advanced Video Codec
Format profile : High@L3.1
Format settings : CABAC / 5 Ref Frames
Format settings, CABAC : Yes
Format settings, RefFrames : 5 frames
Codec ID : V_MPEG4/ISO/AVC
Duration : 51 min 44 s
Bit rate : 2 640 kb/s
Width : 1 280 pixels
Height : 720 pixels
Display aspect ratio : 16:9
Frame rate mode : Constant
Frame rate : 25.000 FPS
Color space : YUV
Chroma subsampling : 4:2:0
Bit depth : 8 bits
Scan type : Progressive
Bits/(Pixel*Frame) : 0.115
Stream size : 977 MiB (98%)
Default : Yes
Forced : No

Audio
ID : 2
Format : AAC
Format/Info : Advanced Audio Codec
Format profile : HE-AAC / LC
Format settings : Explicit
Codec ID : A_AAC-2
Duration : 51 min 44 s
Bit rate : 64.0 kb/s
Channel(s) : 2 channels
Channel positions : Front: L R
Sampling rate : 48.0 kHz / 24.0 kHz
Frame rate : 23.438 FPS (1024 SPF)
Compression mode : Lossy
Stream size : 23.7 MiB (2%)
Language : English
Default : Yes
Forced : No

Text
ID : 3
Format : UTF-8
Codec ID : S_TEXT/UTF8
Codec ID/Info : UTF-8 Plain Text
Duration : 51 min 19 s
Bit rate : 62 b/s
Count of elements : 853
Stream size : 23.5 KiB (0%)
Title : English (SDH)
Language : English
Default : No
Forced : No





Harrow S01E03


Harrow S01E03


Harrow S01E03


Harrow S01E03


Harrow S01E03

All episodes