Index
# A B C D E F G H I J K L M N O P Q R S T U V W Y Z
Tags
Language
Tags

Featured TV Shows


Harrow S01E06

Posted By: Tavaz
720p (HD) / WEB-DL IMDb
Harrow S01E06

Harrow S01E06
WEB-DL | MKV | 1280x720 | English | H264 @ 4660 kbps | E-AC-3 @ 640 kbps | 52 min 6 s | 1.93 GiB
Subtitles: French, English
Genre: Drama


When a dark secret from this past threatens to be exposed, unorthodox and brilliant medical examiner, Doctor Daniel Harrow, must use all his forensic skills to keep it buried forever.

6c7b0d40855646a1a993c3a23b40fca4.mkv (1.9 GB)



General
Unique ID : 17247054761635503888215016561318599931 (0xCF9A973B4E144D169BC2FFCF0789CFB)
Complete name : ./6c7b0d40855646a1a993c3a23b40fca4.mkv
Format : Matroska
Format version : Version 4 / Version 2
File size : 1.93 GiB
Duration : 52 min 6 s
Overall bit rate : 5 303 kb/s
Encoded date : UTC 2019-02-13 19:08:16
Writing application : mkvmerge v30.1.0 ('Forever And More') 64-bit
Writing library : libebml v1.3.6 + libmatroska v1.4.9

Video
ID : 1
Format : AVC
Format/Info : Advanced Video Codec
Format profile : High@L3.1
Format settings : CABAC / 4 Ref Frames
Format settings, CABAC : Yes
Format settings, RefFrames : 4 frames
Codec ID : V_MPEG4/ISO/AVC
Duration : 52 min 6 s
Bit rate mode : Constant
Bit rate : 4 660 kb/s
Nominal bit rate : 6 000 kb/s
Width : 1 280 pixels
Height : 720 pixels
Display aspect ratio : 16:9
Frame rate mode : Constant
Frame rate : 25.000 FPS
Color space : YUV
Chroma subsampling : 4:2:0
Bit depth : 8 bits
Scan type : Progressive
Bits/(Pixel*Frame) : 0.202
Stream size : 1.70 GiB (88%)
Default : Yes
Forced : No
Color range : Limited
Color primaries : BT.709
Transfer characteristics : BT.709
Matrix coefficients : BT.709

Audio
ID : 2
Format : E-AC-3
Format/Info : Enhanced Audio Coding 3
Format settings, Endianness : Big
Codec ID : A_EAC3
Duration : 52 min 6 s
Bit rate mode : Constant
Bit rate : 640 kb/s
Channel(s) : 6 channels
Channel positions : Front: L C R, Side: L R, LFE
Sampling rate : 48.0 kHz
Frame rate : 187.500 FPS (256 SPF)
Compression mode : Lossy
Stream size : 239 MiB (12%)
Language : English
Service kind : Complete Main
Default : Yes
Forced : No

Text #1
ID : 3
Format : UTF-8
Codec ID : S_TEXT/UTF8
Codec ID/Info : UTF-8 Plain Text
Duration : 51 min 35 s
Bit rate : 72 b/s
Count of elements : 824
Stream size : 27.2 KiB (0%)
Title : SDH
Language : English
Default : No
Forced : No

Text #2
ID : 4
Format : UTF-8
Codec ID : S_TEXT/UTF8
Codec ID/Info : UTF-8 Plain Text
Duration : 51 min 32 s
Bit rate : 58 b/s
Count of elements : 806
Stream size : 22.2 KiB (0%)
Language : French
Default : No
Forced : No





Harrow S01E06


Harrow S01E06


Harrow S01E06


Harrow S01E06


Harrow S01E06

All episodes