Index
# A B C D E F G H I J K L M N O P Q R S T U V W Y Z
Tags
Language
Tags

Featured TV Shows


Harrow S02E02

Posted By:
1080p (FullHD) / HDTV IMDb
Harrow S02E02

Harrow S02E02
HDTV | MKV | 1920x1080 | English | H264 @ 3187 kbps | MPEG Audio @ 256 kbps | 52 min 7 s | 1.28 GiB
Genre: Drama


When a dark secret from this past threatens to be exposed, unorthodox and brilliant medical examiner, Doctor Daniel Harrow, must use all his forensic skills to keep it buried forever.

Harrow.S02E02.1080p.HDTV.H265.MPEG.2.0-Captain.mkv (1.3 GB)



General
Unique ID : 204560618522993694533710076942378719348 (0x99E4F12B35BC24BF9942CDB9A3A1D874)
Complete name : ./Harrow.S02E02.1080p.HDTV.H265.MPEG.2.0-Captain.mkv
Format : Matroska
Format version : Version 4 / Version 2
File size : 1.28 GiB
Duration : 52 min 7 s
Overall bit rate : 3 513 kb/s
Writing application : Lavf58.20.100
Writing library : Lavf58.20.100
ErrorDetectionType : Per level 1

Video
ID : 1
Format : AVC
Format/Info : Advanced Video Codec
Format profile : High@L4
Format settings : CABAC / 4 Ref Frames
Format settings, CABAC : Yes
Format settings, RefFrames : 4 frames
Format settings, GOP : M=4, N=28
Codec ID : V_MPEG4/ISO/AVC
Duration : 52 min 7 s
Bit rate : 3 187 kb/s
Width : 1 920 pixels
Height : 1 080 pixels
Display aspect ratio : 16:9
Frame rate mode : Constant
Frame rate : 25.000 FPS
Standard : Component
Color space : YUV
Chroma subsampling : 4:2:0
Bit depth : 8 bits
Scan type : MBAFF
Scan type, store method : Interleaved fields
Scan order : Top Field First
Bits/(Pixel*Frame) : 0.061
Stream size : 1.16 GiB (91%)
Default : Yes
Forced : No
Color range : Limited

Audio
ID : 2
Format : MPEG Audio
Format version : Version 1
Format profile : Layer 2
Codec ID : A_MPEG/L2
Codec ID/Hint : MP2
Duration : 52 min 7 s
Bit rate mode : Constant
Bit rate : 256 kb/s
Channel(s) : 2 channels
Sampling rate : 48.0 kHz
Compression mode : Lossy
Delay relative to video : -68 ms
Stream size : 95.4 MiB (7%)
Language : English
Default : Yes
Forced : No





Harrow S02E02


Harrow S02E02


Harrow S02E02


Harrow S02E02


Harrow S02E02

All episodes