Index
# A B C D E F G H I J K L M N O P Q R S T U V W Y Z
Tags
Language
Tags

Featured TV Shows


Harrow S02E05

Posted By: Tavaz
1080p (FullHD) / HDTV IMDb
Harrow S02E05

Harrow S02E05
HDTV | MKV | 1920x1080 | English | H264 @ 3351 kbps | MPEG Audio @ 256 kbps | 51 min 59 s | 1.31 GiB
Subtitles: English
Genre: Drama


When a dark secret from this past threatens to be exposed, unorthodox and brilliant medical examiner, Doctor Daniel Harrow, must use all his forensic skills to keep it buried forever.

Harrow.S02E05.1080p.HDTV.H264-CBFM.mkv (1.3 GB)



General
Unique ID : 236206523506269084611230223742836687578 (0xB1B3B8BF3C78CAAEC94DBF6D47D042DA)
Complete name : ./Harrow.S02E05.1080p.HDTV.H264-CBFM.mkv
Format : Matroska
Format version : Version 4 / Version 2
File size : 1.31 GiB
Duration : 51 min 59 s
Overall bit rate : 3 610 kb/s
Encoded date : UTC 2019-06-16 16:09:18
Writing application : mkvmerge v28.2.0 ('The Awakening') 64-bit
Writing library : libebml v1.3.6 + libmatroska v1.4.9

Video
ID : 1
Format : AVC
Format/Info : Advanced Video Codec
Format profile : High@L4
Format settings : CABAC / 4 Ref Frames
Format settings, CABAC : Yes
Format settings, RefFrames : 4 frames
Codec ID : V_MPEG4/ISO/AVC
Duration : 51 min 59 s
Bit rate : 3 352 kb/s
Width : 1 920 pixels
Height : 1 080 pixels
Display aspect ratio : 16:9
Frame rate mode : Constant
Frame rate : 25.000 FPS
Standard : Component
Color space : YUV
Chroma subsampling : 4:2:0
Bit depth : 8 bits
Scan type : MBAFF
Bits/(Pixel*Frame) : 0.065
Stream size : 1.22 GiB (93%)
Default : Yes
Forced : No
Color range : Limited

Audio
ID : 2
Format : MPEG Audio
Format version : Version 1
Format profile : Layer 2
Codec ID : A_MPEG/L2
Codec ID/Hint : MP2
Duration : 51 min 58 s
Bit rate mode : Constant
Bit rate : 256 kb/s
Channel(s) : 2 channels
Sampling rate : 48.0 kHz
Frame rate : 41.667 FPS (1152 SPF)
Compression mode : Lossy
Stream size : 95.2 MiB (7%)
Language : English
Default : Yes
Forced : No

Text
ID : 3
Format : UTF-8
Codec ID : S_TEXT/UTF8
Codec ID/Info : UTF-8 Plain Text
Duration : 51 min 39 s
Bit rate : 61 b/s
Count of elements : 731
Stream size : 23.3 KiB (0%)
Language : English
Default : No
Forced : No





Harrow S02E05


Harrow S02E05


Harrow S02E05


Harrow S02E05


Harrow S02E05

All episodes