Index
# A B C D E F G H I J K L M N O P Q R S T U V W Y Z
Tags
Language
Tags

Featured TV Shows


Harrow S02E08

Posted By:
1080p (FullHD) / HDTV IMDb
Harrow S02E08

Harrow S02E08
HDTV | MKV | 1920x1080 | English | H264 @ 2998 kbps | MPEG Audio @ 256 kbps | 51 min 9 s | 1.16 GiB
Subtitles: English
Genre: Drama


When a dark secret from this past threatens to be exposed, unorthodox and brilliant medical examiner, Doctor Daniel Harrow, must use all his forensic skills to keep it buried forever.

Harrow.S02E08.1080p.HDTV.H264-CBFM.mkv (1.2 GB)



General
Unique ID : 6090390426449825874071280270889578858 (0x494F76E7AB5DCC6EDAB01EE37E5F16A)
Complete name : ./Harrow.S02E08.1080p.HDTV.H264-CBFM.mkv
Format : Matroska
Format version : Version 4 / Version 2
File size : 1.16 GiB
Duration : 51 min 9 s
Overall bit rate : 3 257 kb/s
Encoded date : UTC 2019-06-30 15:22:21
Writing application : mkvmerge v28.2.0 ('The Awakening') 64-bit
Writing library : libebml v1.3.6 + libmatroska v1.4.9

Video
ID : 1
Format : AVC
Format/Info : Advanced Video Codec
Format profile : High@L4
Format settings : CABAC / 4 Ref Frames
Format settings, CABAC : Yes
Format settings, RefFrames : 4 frames
Codec ID : V_MPEG4/ISO/AVC
Duration : 51 min 9 s
Bit rate : 2 999 kb/s
Width : 1 920 pixels
Height : 1 080 pixels
Display aspect ratio : 16:9
Frame rate mode : Constant
Frame rate : 25.000 FPS
Standard : Component
Color space : YUV
Chroma subsampling : 4:2:0
Bit depth : 8 bits
Scan type : MBAFF
Bits/(Pixel*Frame) : 0.058
Stream size : 1.07 GiB (92%)
Default : Yes
Forced : No
Color range : Limited

Audio
ID : 2
Format : MPEG Audio
Format version : Version 1
Format profile : Layer 2
Codec ID : A_MPEG/L2
Codec ID/Hint : MP2
Duration : 51 min 9 s
Bit rate mode : Constant
Bit rate : 256 kb/s
Channel(s) : 2 channels
Sampling rate : 48.0 kHz
Frame rate : 41.667 FPS (1152 SPF)
Compression mode : Lossy
Stream size : 93.7 MiB (8%)
Language : English
Default : Yes
Forced : No

Text
ID : 3
Format : UTF-8
Codec ID : S_TEXT/UTF8
Codec ID/Info : UTF-8 Plain Text
Duration : 50 min 48 s
Bit rate : 70 b/s
Count of elements : 882
Stream size : 26.3 KiB (0%)
Language : English
Default : No
Forced : No





Harrow S02E08


Harrow S02E08


Harrow S02E08


Harrow S02E08


Harrow S02E08

All episodes