Index
# A B C D E F G H I J K L M N O P Q R S T U V W Y Z
Tags
Language
Tags

Featured TV Shows


Harrow S03E01

Posted By:
1080p (FullHD) / HDTV IMDb
Harrow S03E01

Harrow S03E01
HDTV | MKV | 1920x1080 | English | H264 @ 2239 kbps | MPEG Audio @ 256 kbps | 51 min 58 s | 928 MiB
Subtitles: English
Genre: Crime, Drama


When a dark secret from this past threatens to be exposed, unorthodox and brilliant medical examiner, Doctor Daniel Harrow, must use all his forensic skills to keep it buried forever.

cf5c87ff9d8d436988af31307a7b96ab.mkv (928.3 MB)



General
Unique ID : 21790875278992544377960777154671917980 (0x1064C51991FFAE41C325388E7ACBBB9C)
Complete name : ./cf5c87ff9d8d436988af31307a7b96ab.mkv
Format : Matroska
Format version : Version 4 / Version 2
File size : 928 MiB
Duration : 51 min 58 s
Overall bit rate : 2 497 kb/s
Encoded date : UTC 2021-02-08 00:34:19
Writing application : mkvmerge v28.2.0 ('The Awakening') 64-bit
Writing library : libebml v1.3.6 + libmatroska v1.4.9

Video
ID : 1
Format : AVC
Format/Info : Advanced Video Codec
Format profile : High@L4
Format settings : CABAC / 4 Ref Frames
Format settings, CABAC : Yes
Format settings, RefFrames : 4 frames
Codec ID : V_MPEG4/ISO/AVC
Duration : 51 min 58 s
Bit rate : 2 239 kb/s
Width : 1 920 pixels
Height : 1 080 pixels
Display aspect ratio : 16:9
Frame rate mode : Constant
Frame rate : 25.000 FPS
Standard : Component
Color space : YUV
Chroma subsampling : 4:2:0
Bit depth : 8 bits
Scan type : MBAFF
Bits/(Pixel*Frame) : 0.043
Stream size : 832 MiB (90%)
Default : Yes
Forced : No
Color range : Limited

Audio
ID : 2
Format : MPEG Audio
Format version : Version 1
Format profile : Layer 2
Codec ID : A_MPEG/L2
Codec ID/Hint : MP2
Duration : 51 min 58 s
Bit rate mode : Constant
Bit rate : 256 kb/s
Channel(s) : 2 channels
Sampling rate : 48.0 kHz
Frame rate : 41.667 FPS (1152 SPF)
Compression mode : Lossy
Stream size : 95.2 MiB (10%)
Language : English
Default : Yes
Forced : No

Text
ID : 3
Format : UTF-8
Codec ID : S_TEXT/UTF8
Codec ID/Info : UTF-8 Plain Text
Duration : 51 min 37 s
Bit rate : 79 b/s
Count of elements : 865
Stream size : 30.1 KiB (0%)
Language : English
Default : No
Forced : No





Harrow S03E01


Harrow S03E01


Harrow S03E01


Harrow S03E01


Harrow S03E01

All episodes