Index
# A B C D E F G H I J K L M N O P Q R S T U V W Y Z
Tags
Language
Tags

Featured TV Shows


Harrow S03E03

Posted By: Tavaz
1080p (FullHD) / HDTV IMDb
Harrow S03E03

Harrow S03E03
HDTV | MKV | 1920x1080 | English | H264 @ 2257 kbps | MPEG Audio @ 256 kbps | 51 min 44 s | 931 MiB
Subtitles: English
Genre: Crime, Drama, Mystery


When a dark secret from this past threatens to be exposed, unorthodox and brilliant medical examiner, Doctor Daniel Harrow, must use all his forensic skills to keep it buried forever.

d930315186686ba2080888b1a77eb6e0.mkv (930.9 MB)



General
Unique ID : 129413414941992171751373394495494851598 (0x615C1DFA8AC83AA5B602DC3AA44A8C0E)
Complete name : ./d930315186686ba2080888b1a77eb6e0.mkv
Format : Matroska
Format version : Version 4 / Version 2
File size : 931 MiB
Duration : 51 min 44 s
Overall bit rate : 2 516 kb/s
Encoded date : UTC 2021-02-22 03:29:42
Writing application : mkvmerge v28.2.0 ('The Awakening') 64-bit
Writing library : libebml v1.3.6 + libmatroska v1.4.9

Video
ID : 1
Format : AVC
Format/Info : Advanced Video Codec
Format profile : High@L4
Format settings : CABAC / 4 Ref Frames
Format settings, CABAC : Yes
Format settings, RefFrames : 4 frames
Codec ID : V_MPEG4/ISO/AVC
Duration : 51 min 44 s
Bit rate : 2 258 kb/s
Width : 1 920 pixels
Height : 1 080 pixels
Display aspect ratio : 16:9
Frame rate mode : Constant
Frame rate : 25.000 FPS
Standard : Component
Color space : YUV
Chroma subsampling : 4:2:0
Bit depth : 8 bits
Scan type : MBAFF
Bits/(Pixel*Frame) : 0.044
Stream size : 835 MiB (90%)
Default : Yes
Forced : No
Color range : Limited

Audio
ID : 2
Format : MPEG Audio
Format version : Version 1
Format profile : Layer 2
Codec ID : A_MPEG/L2
Codec ID/Hint : MP2
Duration : 51 min 44 s
Bit rate mode : Constant
Bit rate : 256 kb/s
Channel(s) : 2 channels
Sampling rate : 48.0 kHz
Frame rate : 41.667 FPS (1152 SPF)
Compression mode : Lossy
Stream size : 94.7 MiB (10%)
Language : English
Default : Yes
Forced : No

Text
ID : 3
Format : UTF-8
Codec ID : S_TEXT/UTF8
Codec ID/Info : UTF-8 Plain Text
Duration : 51 min 20 s
Bit rate : 79 b/s
Count of elements : 975
Stream size : 29.9 KiB (0%)
Language : English
Default : No
Forced : No





Harrow S03E03


Harrow S03E03


Harrow S03E03


Harrow S03E03


Harrow S03E03

All episodes