Index
# A B C D E F G H I J K L M N O P Q R S T U V W Y Z
Tags
Language
Tags

Featured TV Shows


Harrow S03E08

Posted By: Tavaz
1080p (FullHD) / WEBRip IMDb
Harrow S03E08

Harrow S03E08
WEBRip | MKV | 1920x1080 | English | H265 @ 1361 kbps | AC-3 @ 256 kbps | 52 min 3 s | 614 MiB
Subtitles: English
Genre: Crime, Drama, Mystery


When a dark secret from this past threatens to be exposed, unorthodox and brilliant medical examiner, Doctor Daniel Harrow, must use all his forensic skills to keep it buried forever.

d081a822350b465c86ff97f052a9d4b2.mkv (614.4 MB)



General
Unique ID : 277385377114187552819779296039202622330 (0xD0AE7AFAF7463E750450020D20768B7A)
Complete name : ./d081a822350b465c86ff97f052a9d4b2.mkv
Format : Matroska
Format version : Version 4 / Version 2
File size : 614 MiB
Duration : 52 min 3 s
Overall bit rate : 1 650 kb/s
Writing application : mkvmerge v40.0.0 ('Old Town Road + Pony') 64-bit
Writing library : libebml v1.3.9 + libmatroska v1.5.2

Video
ID : 1
Format : HEVC
Format/Info : High Efficiency Video Coding
Format profile : Main@L4@Main
Codec ID : V_MPEGH/ISO/HEVC
Duration : 52 min 3 s
Bit rate : 1 361 kb/s
Width : 1 920 pixels
Height : 1 080 pixels
Display aspect ratio : 16:9
Frame rate mode : Constant
Frame rate : 25.000 FPS
Color space : YUV
Chroma subsampling : 4:2:0
Bit depth : 8 bits
Bits/(Pixel*Frame) : 0.026
Stream size : 507 MiB (82%)
Language : English
Default : Yes
Forced : No
Color range : Limited
Color primaries : BT.709
Transfer characteristics : BT.709
Matrix coefficients : BT.709

Audio
ID : 2
Format : AC-3
Format/Info : Audio Coding 3
Format settings, Endianness : Big
Codec ID : A_AC3
Duration : 52 min 3 s
Bit rate mode : Constant
Bit rate : 256 kb/s
Channel(s) : 6 channels
Channel positions : Front: L C R, Side: L R, LFE
Sampling rate : 48.0 kHz
Frame rate : 31.250 FPS (1536 SPF)
Bit depth : 16 bits
Compression mode : Lossy
Delay relative to video : -5 ms
Stream size : 95.3 MiB (16%)
Title : Surround
Language : English
Service kind : Complete Main
Default : Yes
Forced : No

Text
ID : 3
Format : UTF-8
Codec ID : S_TEXT/UTF8
Codec ID/Info : UTF-8 Plain Text
Language : English
Default : No
Forced : No





Harrow S03E08


Harrow S03E08


Harrow S03E08


Harrow S03E08


Harrow S03E08

All episodes