Featured TV Shows


הוואי 5-0 S08E04

Posted By: Tavaz
1080p (FullHD) / WEB-DL IMDb
הוואי 5-0 S08E04

הוואי 5-0 S08E04
WEB-DL | MKV | 1920x1080 | English | H264 @ 10709 kbps | E-AC-3 @ 640 kbps | 43 min 16 s | 3.43 GiB
Genre: אקשן, פשע, דרמה

העלילה עוקבת אחר יחידת עילית משטרתית, ששמה לה למטרה לחסל את הפשע ולשמור על הסדר בחופים שטופי השמש של איי הוואי. סטיב מק'גרט, יוצא בכיר מחיל הים, חוזר לאואהו, הוואי, במטרה לחקור את רצח אביו, ונשאר באזור כדי להוביל צוות מיוחד שילחם בפשעים חמורים שמתבצעים באיים. אליו מצטרפים דני "דאנו" וויליאמס, שוטר מניו-ג'רזי שנדד להוואי בעקבות בתו הקטנה. צ'ין הו קלי, בן חסותו של אביו המנוח של מק'גרט ו-קונו קאלאקאווה, בת-דודתו של צ'ין, גולשת מקומית שרק יצאה מהאקדמיה המשטרתית, ומשתוקקת להשתלב ביחידה.

3f884e83aab746eb96199f5e50e0e4a3.mkv (3.4 GB)



General
Unique ID : 178904573855816847412648687226092555717 (0x8697C4814800F5C9828CAF02A1E48DC5)
Complete name : ./3f884e83aab746eb96199f5e50e0e4a3.mkv
Format : Matroska
Format version : Version 4 / Version 2
File size : 3.43 GiB
Duration : 43 min 16 s
Overall bit rate mode : Variable
Overall bit rate : 11.4 Mb/s
Encoded date : UTC 2017-10-21 20:11:47
Writing application : mkvmerge v13.0.0 ('The Juggler') 64bit
Writing library : libebml v1.3.4 + libmatroska v1.4.5

Video
ID : 1
Format : AVC
Format/Info : Advanced Video Codec
Format profile : High@L4
Format settings : CABAC / 4 Ref Frames
Format settings, CABAC : Yes
Format settings, RefFrames : 4 frames
Codec ID : V_MPEG4/ISO/AVC
Duration : 43 min 16 s
Bit rate mode : Variable
Bit rate : 10.7 Mb/s
Maximum bit rate : 15.0 Mb/s
Width : 1 920 pixels
Height : 1 080 pixels
Display aspect ratio : 16:9
Frame rate mode : Constant
Frame rate : 23.976 (24000/1001) FPS
Color space : YUV
Chroma subsampling : 4:2:0
Bit depth : 8 bits
Scan type : Progressive
Bits/(Pixel*Frame) : 0.215
Stream size : 3.24 GiB (94%)
Default : Yes
Forced : No
Color range : Limited
Color primaries : BT.709
Transfer characteristics : BT.709
Matrix coefficients : BT.709

Audio
ID : 2
Format : E-AC-3
Format/Info : Enhanced Audio Coding 3
Format settings, Endianness : Big
Codec ID : A_EAC3
Duration : 43 min 15 s
Bit rate mode : Constant
Bit rate : 640 kb/s
Channel(s) : 6 channels
Channel positions : Front: L C R, Side: L R, LFE
Sampling rate : 48.0 kHz
Frame rate : 187.500 FPS (256 SPF)
Compression mode : Lossy
Stream size : 198 MiB (6%)
Service kind : Complete Main
Default : Yes
Forced : No

Text
ID : 3
Format : UTF-8
Codec ID : S_TEXT/UTF8
Codec ID/Info : UTF-8 Plain Text
Duration : 42 min 29 s
Bit rate : 92 b/s
Count of elements : 948
Stream size : 28.8 KiB (0%)
Title : English [CC]
Default : No
Forced : No





הוואי 5-0 S08E04


הוואי 5-0 S08E04


הוואי 5-0 S08E04


הוואי 5-0 S08E04


הוואי 5-0 S08E04

All episodes