Index
# A B C D E F G H I J K L M N O P Q R S T U V W Y Z
Tags
Language
Tags

Featured TV Shows


Henry Danger S04E08

Posted By: Tavaz
720p (HD) / WEB-DL IMDb
Henry Danger S04E08

Henry Danger S04E08
WEB-DL | MKV | 1280x720 | English | H264 @ 6000 kbps | E-AC-3 @ 640 kbps | 22 min 32 s | 1.03 GiB
Subtitles: English
Genre: Comedy, Family, Mystery, Drama


When 13-year-old Henry Hart lands a job as Danger, the sidekick-in-training to superhero Captain Man, he must learn to navigate a double life balancing the challenges of 8th grade with the crazy adventures of a real-life crime fighter!

a6a484b30b874545a49a2243c5d16ec4.mkv (1.0 GB)



General
Unique ID : 38682401294079006913638700481655969450 (0x1D19F5A19D924DA915C61C48D15D96AA)
Complete name : ./a6a484b30b874545a49a2243c5d16ec4.mkv
Format : Matroska
Format version : Version 4 / Version 2
File size : 1.03 GiB
Duration : 22 min 32 s
Overall bit rate : 6 515 kb/s
Encoded date : UTC 2021-08-27 23:21:12
Writing application : mkvmerge v60.0.0 ('Are We Copies?') 64-bit
Writing library : libebml v1.4.2 + libmatroska v1.6.4

Video
ID : 1
Format : AVC
Format/Info : Advanced Video Codec
Format profile : High@L3.1
Format settings : CABAC / 4 Ref Frames
Format settings, CABAC : Yes
Format settings, RefFrames : 4 frames
Codec ID : V_MPEG4/ISO/AVC
Duration : 22 min 32 s
Bit rate mode : Constant
Bit rate : 6 000 kb/s
Width : 1 280 pixels
Height : 720 pixels
Display aspect ratio : 16:9
Frame rate mode : Constant
Frame rate : 24.000 FPS
Color space : YUV
Chroma subsampling : 4:2:0
Bit depth : 8 bits
Scan type : Progressive
Bits/(Pixel*Frame) : 0.271
Stream size : 947 MiB (90%)
Default : Yes
Forced : No
Color range : Limited
Color primaries : BT.709
Transfer characteristics : BT.709
Matrix coefficients : BT.709

Audio
ID : 2
Format : E-AC-3
Format/Info : Enhanced Audio Coding 3
Format settings, Endianness : Big
Codec ID : A_EAC3
Duration : 22 min 32 s
Bit rate mode : Constant
Bit rate : 640 kb/s
Channel(s) : 6 channels
Channel positions : Front: L C R, Side: L R, LFE
Sampling rate : 48.0 kHz
Frame rate : 187.500 FPS (256 SPF)
Compression mode : Lossy
Stream size : 103 MiB (10%)
Language : English
Service kind : Complete Main
Default : Yes
Forced : No

Text
ID : 3
Format : UTF-8
Codec ID : S_TEXT/UTF8
Codec ID/Info : UTF-8 Plain Text
Duration : 21 min 59 s
Bit rate : 71 b/s
Count of elements : 478
Stream size : 11.6 KiB (0%)
Title : SDH
Language : English
Default : No
Forced : No





Henry Danger S04E08


Henry Danger S04E08


Henry Danger S04E08


Henry Danger S04E08


Henry Danger S04E08

All episodes