Featured TV Shows


Henry Danger S05E01

Posted By: Tavaz
1080p (FullHD) / WEB-DL IMDb
Henry Danger S05E01

Henry Danger S05E01
WEB-DL | MKV | 1916x1076 | English | H264 @ 5133 kbps | AAC @ 126 kbps | 22 min 43 s | 855 MiB
Genre: Commedia, Famiglia

When 13-year-old Henry Hart lands a job as Danger, the sidekick-in-training to superhero Captain Man, he must learn to navigate a double life balancing the challenges of 8th grade with the crazy adventures of a real-life crime fighter!

74313a48e593426ba61c6152abb1175d.mkv (855.4 MB)



General
Unique ID : 300187304469073134344121914238761043819 (0xE1D5F8CBD44A2329C2E163E8158A076B)
Complete name : ./74313a48e593426ba61c6152abb1175d.mkv
Format : Matroska
Format version : Version 4 / Version 2
File size : 855 MiB
Duration : 22 min 43 s
Overall bit rate : 5 262 kb/s
Encoded date : UTC 2019-01-22 21:50:25
Writing application : mkvmerge v29.0.0 ('Like It Or Not') 64-bit
Writing library : libebml v1.3.6 + libmatroska v1.4.9

Video
ID : 2
Format : AVC
Format/Info : Advanced Video Codec
Format profile : High@L4
Format settings : CABAC / 4 Ref Frames
Format settings, CABAC : Yes
Format settings, RefFrames : 4 frames
Codec ID : V_MPEG4/ISO/AVC
Duration : 22 min 43 s
Bit rate : 5 133 kb/s
Width : 1 916 pixels
Height : 1 076 pixels
Display aspect ratio : 16:9
Frame rate mode : Constant
Frame rate : 23.976 (24000/1001) FPS
Color space : YUV
Chroma subsampling : 4:2:0
Bit depth : 8 bits
Scan type : Progressive
Bits/(Pixel*Frame) : 0.104
Stream size : 834 MiB (98%)
Language : English
Default : Yes
Forced : No
Color range : Limited
Color primaries : BT.709
Transfer characteristics : BT.709
Matrix coefficients : BT.709

Audio
ID : 1
Format : AAC
Format/Info : Advanced Audio Codec
Format profile : LC
Codec ID : A_AAC-2
Duration : 22 min 43 s
Bit rate : 126 kb/s
Channel(s) : 2 channels
Channel positions : Front: L R
Sampling rate : 48.0 kHz
Frame rate : 46.875 FPS (1024 SPF)
Compression mode : Lossy
Delay relative to video : -42 ms
Stream size : 20.5 MiB (2%)
Language : English
Default : Yes
Forced : No





Henry Danger S05E01


Henry Danger S05E01


Henry Danger S05E01


Henry Danger S05E01


Henry Danger S05E01

All episodes