Featured TV Shows


Henry Danger S05E12

Posted By: Tavaz
1080p (FullHD) / WEB-DL IMDb
Henry Danger S05E12

Henry Danger S05E12
WEB-DL | MKV | 1916x1076 | English | H264 @ 5131 kbps | AAC @ 126 kbps | 22 min 44 s | 855 MiB
Genre: Comedy, Family

When 13-year-old Henry Hart lands a job as Danger, the sidekick-in-training to superhero Captain Man, he must learn to navigate a double life balancing the challenges of 8th grade with the crazy adventures of a real-life crime fighter!

559ed6eebe1f4ecdb25536da6bcc8025.mkv (855.4 MB)



General
Unique ID : 64273564978140277294009809484978496985 (0x305AA36A6830E6C175C5AF7A2F8AA5D9)
Complete name : ./559ed6eebe1f4ecdb25536da6bcc8025.mkv
Format : Matroska
Format version : Version 4 / Version 2
File size : 855 MiB
Duration : 22 min 44 s
Overall bit rate : 5 260 kb/s
Encoded date : UTC 2019-02-24 22:06:53
Writing application : mkvmerge v29.0.0 ('Like It Or Not') 64-bit
Writing library : libebml v1.3.6 + libmatroska v1.4.9
Cover : Yes
Attachments : small_cover.jpg / cover.jpg / cover_land.jpg / small_cover_land.jpg

Video
ID : 2
Format : AVC
Format/Info : Advanced Video Codec
Format profile : High@L4
Format settings : CABAC / 4 Ref Frames
Format settings, CABAC : Yes
Format settings, RefFrames : 4 frames
Codec ID : V_MPEG4/ISO/AVC
Duration : 22 min 44 s
Bit rate : 5 131 kb/s
Width : 1 916 pixels
Height : 1 076 pixels
Display aspect ratio : 16:9
Frame rate mode : Constant
Frame rate : 23.976 (24000/1001) FPS
Color space : YUV
Chroma subsampling : 4:2:0
Bit depth : 8 bits
Scan type : Progressive
Bits/(Pixel*Frame) : 0.104
Stream size : 834 MiB (98%)
Language : English
Default : Yes
Forced : No
Color range : Limited
Color primaries : BT.709
Transfer characteristics : BT.709
Matrix coefficients : BT.709

Audio
ID : 1
Format : AAC
Format/Info : Advanced Audio Codec
Format profile : LC
Codec ID : A_AAC-2
Duration : 22 min 44 s
Bit rate : 127 kb/s
Channel(s) : 2 channels
Channel positions : Front: L R
Sampling rate : 48.0 kHz
Frame rate : 46.875 FPS (1024 SPF)
Compression mode : Lossy
Delay relative to video : -42 ms
Stream size : 20.6 MiB (2%)
Language : English
Default : Yes
Forced : No





Henry Danger S05E12


Henry Danger S05E12


Henry Danger S05E12


Henry Danger S05E12


Henry Danger S05E12

All episodes