Featured TV Shows


Henry Danger S05E25

Posted By: Tavaz
1080p (FullHD) / WEB-DL IMDb
Henry Danger S05E25

Henry Danger S05E25
WEB-DL | MKV | 1916x1076 | English | H264 @ 5107 kbps | AAC @ 127 kbps | 22 min 42 s | 851 MiB
Genre: Commedia, Famiglia


When 13-year-old Henry Hart lands a job as Danger, the sidekick-in-training to superhero Captain Man, he must learn to navigate a double life balancing the challenges of 8th grade with the crazy adventures of a real-life crime fighter!

38ed936c28d44968a71b7a55b9922a77.mkv (850.6 MB)



General
Unique ID : 13988636890665640164366303744637741023 (0xA861D0C2A82AF4567DE8279381727DF)
Complete name : ./38ed936c28d44968a71b7a55b9922a77.mkv
Format : Matroska
Format version : Version 4 / Version 2
File size : 851 MiB
Duration : 22 min 42 s
Overall bit rate : 5 237 kb/s
Encoded date : UTC 2019-10-15 02:43:49
Writing application : mkvmerge v38.0.0 ('The Silent Type') 64-bit
Writing library : libebml v1.3.9 + libmatroska v1.5.2

Video
ID : 2
Format : AVC
Format/Info : Advanced Video Codec
Format profile : High@L4
Format settings : CABAC / 4 Ref Frames
Format settings, CABAC : Yes
Format settings, RefFrames : 4 frames
Codec ID : V_MPEG4/ISO/AVC
Duration : 22 min 42 s
Bit rate : 5 107 kb/s
Width : 1 916 pixels
Height : 1 076 pixels
Display aspect ratio : 16:9
Frame rate mode : Constant
Frame rate : 23.976 (24000/1001) FPS
Color space : YUV
Chroma subsampling : 4:2:0
Bit depth : 8 bits
Scan type : Progressive
Bits/(Pixel*Frame) : 0.103
Stream size : 830 MiB (98%)
Language : English
Default : Yes
Forced : No
Color range : Limited
Color primaries : BT.709
Transfer characteristics : BT.709
Matrix coefficients : BT.709

Audio
ID : 1
Format : AAC
Format/Info : Advanced Audio Codec
Format profile : LC
Codec ID : A_AAC-2
Duration : 22 min 42 s
Bit rate : 127 kb/s
Channel(s) : 2 channels
Channel positions : Front: L R
Sampling rate : 48.0 kHz
Frame rate : 46.875 FPS (1024 SPF)
Compression mode : Lossy
Delay relative to video : -42 ms
Stream size : 20.6 MiB (2%)
Language : English
Default : Yes
Forced : No





Henry Danger S05E25


Henry Danger S05E25


Henry Danger S05E25


Henry Danger S05E25


Henry Danger S05E25

All episodes