Featured TV Shows


Henry Danger S05E26

Posted By: Tavaz
1080p (FullHD) / WEB-DL IMDb
Henry Danger S05E26

Henry Danger S05E26
WEB-DL | MOV | 1916x1076 | English | H264 @ 5152 kbps | AAC @ 126 kbps | 22 min 42 s | 859 MiB
Subtitles: English
Genre: Commedia, Famiglia


When 13-year-old Henry Hart lands a job as Danger, the sidekick-in-training to superhero Captain Man, he must learn to navigate a double life balancing the challenges of 8th grade with the crazy adventures of a real-life crime fighter!

8ba44685c5244afeac2a0a2c986b5961.mkv (859.2 MB)



General
Complete name : ./8ba44685c5244afeac2a0a2c986b5961.mkv
Format : MPEG-4
Format profile : Base Media / Version 2
Codec ID : mp42 (mp42/isom)
File size : 859 MiB
Duration : 22 min 42 s
Overall bit rate mode : Variable
Overall bit rate : 5 289 kb/s
Collection : Henry Danger
Album : Henry Danger, Vol. 11
Album/Performer : Henry Danger
Part : 7
Part/Position : 1
Part/Total : 1
Track name : Captain Mom
Track name/Position : 7
Track name/Total : 8
Performer : Henry Danger
Genre : Kids & Family
ContentType : TV Show
Description : Captain Man is being a baby about having a baby. Labor pains leave him helpless so Kid Danger and
Encoded date : UTC 2019-11-03 10:55:57
Tagged date : UTC 2019-11-03 11:00:48
Copyright : © 2019 Viacom International Inc
Cover : Yes
Rating : None
LongDescription : Captain Man is being a baby about having a baby. Labor pains leave him helpless so Kid Danger and Piper step up to take on a couple of slick grease thieves.
ContentRating : us-tv|TV-G|300|
AlbumTitleID : 895466466
PlayListID : 1469368975
GenreID : 4005
AppleStoreCountry : United States
Vendor : Viacom:vendor_id:NICKELODEON_HENRYDANGER_526_HD
Flavour : 18:1080p
FileExtension_Invalid : mov mp4 m4v m4a m4b m4p 3ga 3gpa 3gpp 3gp 3gpp2 3g2 k3g jpm jpx mqv ismv isma ismt f4a f4b f4v

Video
ID : 2
Format : AVC
Format/Info : Advanced Video Codec
Format profile : High@L4
Format settings : CABAC / 4 Ref Frames
Format settings, CABAC : Yes
Format settings, RefFrames : 4 frames
Codec ID : avc1
Codec ID/Info : Advanced Video Coding
Duration : 22 min 42 s
Bit rate : 5 152 kb/s
Width : 1 916 pixels
Height : 1 076 pixels
Display aspect ratio : 16:9
Frame rate mode : Constant
Frame rate : 23.976 (24000/1001) FPS
Color space : YUV
Chroma subsampling : 4:2:0
Bit depth : 8 bits
Scan type : Progressive
Bits/(Pixel*Frame) : 0.104
Stream size : 837 MiB (97%)
Language : English
Encoded date : UTC 2019-11-03 10:55:58
Tagged date : UTC 2019-11-03 11:00:48
Color range : Limited
Color primaries : BT.709
Transfer characteristics : BT.709
Matrix coefficients : BT.709

Audio
ID : 1
Format : AAC
Format/Info : Advanced Audio Codec
Format profile : LC
Codec ID : mp4a-40-2
Duration : 22 min 42 s
Bit rate mode : Variable
Bit rate : 126 kb/s
Maximum bit rate : 221 kb/s
Channel(s) : 2 channels
Channel positions : Front: L R
Sampling rate : 48.0 kHz
Frame rate : 46.875 FPS (1024 SPF)
Compression mode : Lossy
Stream size : 20.5 MiB (2%)
Language : English
Default : Yes
Alternate group : 1
Encoded date : UTC 2019-11-03 10:55:58
Tagged date : UTC 2019-11-03 11:00:48

Text
ID : 3-CC1
Format : EIA-608
Muxing mode : Final Cut
Codec ID : c608
Duration : 22 min 4 s
Bit rate mode : Constant
Stream size : 0.00 Byte (0%)
Language : English
Forced : No
Encoded date : UTC 2019-11-03 10:55:58
Tagged date : UTC 2019-11-03 10:56:10
CaptionServiceName : CC1





Henry Danger S05E26


Henry Danger S05E26


Henry Danger S05E26


Henry Danger S05E26


Henry Danger S05E26

All episodes