Featured TV Shows


Henry Danger S05E27

Posted By: Tavaz
720p (HD) / WEBRip IMDb
Henry Danger S05E27

Henry Danger S05E27
WEBRip | MKV | 1280x720 | English | H264 @ 5600 kbps | E-AC-3 @ 224 kbps | 22 min 42 s | 946 MiB
Subtitles: English
Genre: Comedy, Family


When 13-year-old Henry Hart lands a job as Danger, the sidekick-in-training to superhero Captain Man, he must learn to navigate a double life balancing the challenges of 8th grade with the crazy adventures of a real-life crime fighter!

bc8287633418474b82e52c0bdef0641a.mkv (946.2 MB)



General
Unique ID : 151125833702744476390401488281473956931 (0x71B1C6DFA1E72BA4F629783E4A94BC43)
Complete name : ./bc8287633418474b82e52c0bdef0641a.mkv
Format : Matroska
Format version : Version 4 / Version 2
File size : 946 MiB
Duration : 22 min 42 s
Overall bit rate : 5 827 kb/s
Encoded date : UTC 2019-11-11 21:41:04
Writing application : mkvmerge v40.0.0 ('Old Town Road + Pony') 64-bit
Writing library : libebml v1.3.9 + libmatroska v1.5.2

Video
ID : 1
Format : AVC
Format/Info : Advanced Video Codec
Format profile : High@L3.1
Format settings : CABAC / 4 Ref Frames
Format settings, CABAC : Yes
Format settings, RefFrames : 4 frames
Codec ID : V_MPEG4/ISO/AVC
Duration : 22 min 42 s
Bit rate mode : Constant
Bit rate : 5 601 kb/s
Nominal bit rate : 6 000 kb/s
Width : 1 280 pixels
Height : 720 pixels
Display aspect ratio : 16:9
Frame rate mode : Constant
Frame rate : 23.976 (24000/1001) FPS
Color space : YUV
Chroma subsampling : 4:2:0
Bit depth : 8 bits
Scan type : Progressive
Bits/(Pixel*Frame) : 0.253
Stream size : 910 MiB (96%)
Default : Yes
Forced : No
Color range : Limited
Color primaries : BT.709
Transfer characteristics : BT.709
Matrix coefficients : BT.709

Audio
ID : 2
Format : E-AC-3
Format/Info : Enhanced Audio Coding 3
Format settings, Endianness : Big
Codec ID : A_EAC3
Duration : 22 min 42 s
Bit rate mode : Constant
Bit rate : 224 kb/s
Channel(s) : 2 channels
Channel positions : Front: L R
Sampling rate : 48.0 kHz
Frame rate : 187.500 FPS (256 SPF)
Compression mode : Lossy
Stream size : 36.4 MiB (4%)
Language : English
Service kind : Complete Main
Default : Yes
Forced : No

Text
ID : 3
Format : UTF-8
Codec ID : S_TEXT/UTF8
Codec ID/Info : UTF-8 Plain Text
Duration : 22 min 0 s
Bit rate : 99 b/s
Count of elements : 469
Stream size : 16.1 KiB (0%)
Language : English
Default : No
Forced : No





Henry Danger S05E27


Henry Danger S05E27


Henry Danger S05E27


Henry Danger S05E27


Henry Danger S05E27

All episodes