Index
# A B C D E F G H I J K L M N O P Q R S T U V W Y Z
Tags
Language
Tags

Featured TV Shows


Henry Danger S05E31

Posted By: Tavaz
1080p (FullHD) / WEB-DL IMDb
Henry Danger S05E31

Henry Danger S05E31
WEB-DL | MKV | 1916x1076 | English | H264 @ 4971 kbps | AAC @ 126 kbps | 22 min 7 s | 807 MiB
Genre: Commedia, Famiglia


When 13-year-old Henry Hart lands a job as Danger, the sidekick-in-training to superhero Captain Man, he must learn to navigate a double life balancing the challenges of 8th grade with the crazy adventures of a real-life crime fighter!

7c7979d5dcfe4f719dc164c60166d1e3.mkv (807.1 MB)



General
Unique ID : 20638696292957839287154279926997377475 (0xF86DE4A3E70C45B189FF2817922E1C3)
Complete name : ./7c7979d5dcfe4f719dc164c60166d1e3.mkv
Format : Matroska
Format version : Version 4 / Version 2
File size : 807 MiB
Duration : 22 min 7 s
Overall bit rate : 5 101 kb/s
Encoded date : UTC 2020-01-20 13:36:26
Writing application : mkvmerge v42.0.0 ('Overtime') 64-bit
Writing library : libebml v1.3.10 + libmatroska v1.5.2
Cover : Yes
Attachments : cover.jpg

Video
ID : 2
Format : AVC
Format/Info : Advanced Video Codec
Format profile : High@L4
Format settings : CABAC / 4 Ref Frames
Format settings, CABAC : Yes
Format settings, RefFrames : 4 frames
Codec ID : V_MPEG4/ISO/AVC
Duration : 22 min 7 s
Bit rate : 4 972 kb/s
Width : 1 916 pixels
Height : 1 076 pixels
Display aspect ratio : 16:9
Frame rate mode : Constant
Frame rate : 23.976 (24000/1001) FPS
Color space : YUV
Chroma subsampling : 4:2:0
Bit depth : 8 bits
Scan type : Progressive
Bits/(Pixel*Frame) : 0.101
Stream size : 787 MiB (97%)
Language : English
Default : Yes
Forced : No
Color range : Limited
Color primaries : BT.709
Transfer characteristics : BT.709
Matrix coefficients : BT.709

Audio
ID : 1
Format : AAC
Format/Info : Advanced Audio Codec
Format profile : LC
Codec ID : A_AAC-2
Duration : 22 min 7 s
Bit rate : 127 kb/s
Channel(s) : 2 channels
Channel positions : Front: L R
Sampling rate : 48.0 kHz
Frame rate : 46.875 FPS (1024 SPF)
Compression mode : Lossy
Delay relative to video : -42 ms
Stream size : 20.0 MiB (2%)
Language : English
Default : Yes
Forced : No





Henry Danger S05E31


Henry Danger S05E31


Henry Danger S05E31


Henry Danger S05E31


Henry Danger S05E31

All episodes