Index
# A B C D E F G H I J K L M N O P Q R S T U V W Y Z
Tags
Language
Tags

Featured TV Shows


Henry Danger S05E33

Posted By: Tavaz
720p (HD) / WEB-DL IMDb
Henry Danger S05E33

Henry Danger S05E33
WEB-DL | MKV | 1280x720 | English | H264 @ 6000 kbps | E-AC-3 @ 224 kbps | 22 min 12 s | 951 MiB
Subtitles: English
Genre: Comedy, Family, Mystery, Drama


When 13-year-old Henry Hart lands a job as Danger, the sidekick-in-training to superhero Captain Man, he must learn to navigate a double life balancing the challenges of 8th grade with the crazy adventures of a real-life crime fighter!

97e174312716402999da3a845b68faee.mkv (951.2 MB)



General
Unique ID : 197076809100377558075805749776079166290 (0x94439CE0665E684D34B70E5D41189B52)
Complete name : ./97e174312716402999da3a845b68faee.mkv
Format : Matroska
Format version : Version 4 / Version 2
File size : 951 MiB
Duration : 22 min 12 s
Overall bit rate : 5 990 kb/s
Encoded date : UTC 2021-09-06 00:06:51
Writing application : mkvmerge v61.0.0 ('So') 64-bit
Writing library : libebml v1.4.2 + libmatroska v1.6.4

Video
ID : 1
Format : AVC
Format/Info : Advanced Video Codec
Format profile : High@L3.1
Format settings : CABAC / 4 Ref Frames
Format settings, CABAC : Yes
Format settings, RefFrames : 4 frames
Codec ID : V_MPEG4/ISO/AVC
Duration : 22 min 11 s
Bit rate mode : Constant
Bit rate : 6 000 kb/s
Width : 1 280 pixels
Height : 720 pixels
Display aspect ratio : 16:9
Frame rate mode : Constant
Frame rate : 23.976 (24000/1001) FPS
Color space : YUV
Chroma subsampling : 4:2:0
Bit depth : 8 bits
Scan type : Progressive
Bits/(Pixel*Frame) : 0.272
Stream size : 915 MiB (96%)
Default : Yes
Forced : No
Color range : Limited
Color primaries : BT.709
Transfer characteristics : BT.709
Matrix coefficients : BT.709

Audio
ID : 2
Format : E-AC-3
Format/Info : Enhanced Audio Coding 3
Format settings, Endianness : Big
Codec ID : A_EAC3
Duration : 22 min 12 s
Bit rate mode : Constant
Bit rate : 224 kb/s
Channel(s) : 2 channels
Channel positions : Front: L R
Sampling rate : 48.0 kHz
Frame rate : 187.500 FPS (256 SPF)
Compression mode : Lossy
Stream size : 35.6 MiB (4%)
Language : English
Service kind : Complete Main
Default : Yes
Forced : No

Text
ID : 3
Format : UTF-8
Codec ID : S_TEXT/UTF8
Codec ID/Info : UTF-8 Plain Text
Duration : 21 min 30 s
Bit rate : 100 b/s
Count of elements : 486
Stream size : 15.9 KiB (0%)
Title : SDH
Language : English
Default : No
Forced : No





Henry Danger S05E33


Henry Danger S05E33


Henry Danger S05E33


Henry Danger S05E33


Henry Danger S05E33

All episodes