Index
# A B C D E F G H I J K L M N O P Q R S T U V W Y Z
Tags
Language
Tags

Featured TV Shows


Henry Danger S05E36

Posted By: Tavaz
720p (HD) / WEB-DL IMDb
Henry Danger S05E36

Henry Danger S05E36
WEB-DL | MKV | 1280x720 | English | H264 @ 5680 kbps | E-AC-3 @ 224 kbps | 22 min 42 s | 959 MiB
Subtitles: English
Genre: Comedy, Family, Mystery, Drama


When 13-year-old Henry Hart lands a job as Danger, the sidekick-in-training to superhero Captain Man, he must learn to navigate a double life balancing the challenges of 8th grade with the crazy adventures of a real-life crime fighter!

4117778d5e31438a971c36fde29e49ee.mkv (959.2 MB)



General
Unique ID : 16305255215081777222519760922549863997 (0xC44472638A4CB2257505BC08A0EC63D)
Complete name : ./4117778d5e31438a971c36fde29e49ee.mkv
Format : Matroska
Format version : Version 4 / Version 2
File size : 959 MiB
Duration : 22 min 42 s
Overall bit rate : 5 907 kb/s
Encoded date : UTC 2021-09-06 00:19:28
Writing application : mkvmerge v61.0.0 ('So') 64-bit
Writing library : libebml v1.4.2 + libmatroska v1.6.4

Video
ID : 1
Format : AVC
Format/Info : Advanced Video Codec
Format profile : High@L3.1
Format settings : CABAC / 4 Ref Frames
Format settings, CABAC : Yes
Format settings, RefFrames : 4 frames
Codec ID : V_MPEG4/ISO/AVC
Duration : 22 min 42 s
Bit rate mode : Constant
Bit rate : 5 681 kb/s
Nominal bit rate : 6 000 kb/s
Width : 1 280 pixels
Height : 720 pixels
Display aspect ratio : 16:9
Frame rate mode : Constant
Frame rate : 23.976 (24000/1001) FPS
Color space : YUV
Chroma subsampling : 4:2:0
Bit depth : 8 bits
Scan type : Progressive
Bits/(Pixel*Frame) : 0.257
Stream size : 922 MiB (96%)
Default : Yes
Forced : No
Color range : Limited
Color primaries : BT.709
Transfer characteristics : BT.709
Matrix coefficients : BT.709

Audio
ID : 2
Format : E-AC-3
Format/Info : Enhanced Audio Coding 3
Format settings, Endianness : Big
Codec ID : A_EAC3
Duration : 22 min 42 s
Bit rate mode : Constant
Bit rate : 224 kb/s
Channel(s) : 2 channels
Channel positions : Front: L R
Sampling rate : 48.0 kHz
Frame rate : 187.500 FPS (256 SPF)
Compression mode : Lossy
Stream size : 36.4 MiB (4%)
Language : English
Service kind : Complete Main
Default : Yes
Forced : No

Text
ID : 3
Format : UTF-8
Codec ID : S_TEXT/UTF8
Codec ID/Info : UTF-8 Plain Text
Duration : 22 min 8 s
Bit rate : 108 b/s
Count of elements : 514
Stream size : 17.6 KiB (0%)
Title : SDH
Language : English
Default : No
Forced : No





Henry Danger S05E36


Henry Danger S05E36


Henry Danger S05E36


Henry Danger S05E36


Henry Danger S05E36

All episodes