Featured TV Shows


Here and Now S01E04

Posted By: Tavaz
1080p (FullHD) / HDTV IMDb
Here and Now S01E04

Here and Now S01E04
HDTV | MKV | 1920x1080 | French / English | H264 @ 7711 kbps | E-AC-3 @ 256 kbps | 54 min 32 s | 3.13 GiB
Subtitles: French
Genre: Drama

A provocative and darkly comic meditation on the disparate forces polarizing present-day American culture, as experienced by the members of a progressive multi-ethnic family — a philosophy professor and his wife, their adopted children from Vietnam, Liberia and Colombia and their sole biological child — and a contemporary Muslim family, headed by a psychiatrist who is treating one of their children.

47168238d8934e2c906e72381dd40631.mkv (3.1 GB)



General
Unique ID : 331466644302222901775986813541532421334 (0xF95E2751327947CB65FD7210A171CCD6)
Complete name : ./47168238d8934e2c906e72381dd40631.mkv
Format : Matroska
Format version : Version 4 / Version 2
File size : 3.13 GiB
Duration : 54 min 32 s
Overall bit rate : 8 226 kb/s
Encoded date : UTC 2018-09-30 10:37:16
Writing application : mkvmerge v27.0.0 ('Metropolis') 32-bit
Writing library : libebml v1.3.6 + libmatroska v1.4.9

Video
ID : 1
Format : AVC
Format/Info : Advanced Video Codec
Format profile : High@L4.1
Format settings : CABAC / 4 Ref Frames
Format settings, CABAC : Yes
Format settings, RefFrames : 4 frames
Codec ID : V_MPEG4/ISO/AVC
Duration : 54 min 32 s
Bit rate : 7 712 kb/s
Width : 1 920 pixels
Height : 1 080 pixels
Display aspect ratio : 16:9
Frame rate mode : Constant
Frame rate : 25.000 FPS
Color space : YUV
Chroma subsampling : 4:2:0
Bit depth : 8 bits
Scan type : Progressive
Bits/(Pixel*Frame) : 0.149
Stream size : 2.94 GiB (94%)
Title : Here And Now 2018 S01E04
Writing library : x264 core 157 r2935 545de2f
Encoding settings : opencl=1 / cabac=1 / ref=4 / deblock=1:-2:-2 / analyse=0x3:0x133 / me=umh / subme=8 / psy=1 / psy_rd=1.00:0.00 / mixed_ref=1 / me_range=24 / chroma_me=1 / trellis=2 / 8x8dct=1 / cqm=0 / deadzone=21,11 / fast_pskip=0 / chroma_qp_offset=-2 / threads=24 / lookahead_threads=4 / sliced_threads=0 / nr=0 / decimate=1 / interlaced=0 / bluray_compat=0 / constrained_intra=0 / bframes=3 / b_pyramid=2 / b_adapt=2 / b_bias=0 / direct=3 / weightb=1 / open_gop=0 / weightp=2 / keyint=250 / keyint_min=25 / scenecut=40 / intra_refresh=0 / rc_lookahead=60 / rc=crf / mbtree=1 / crf=17.0 / qcomp=0.60 / qpmin=0 / qpmax=69 / qpstep=4 / ip_ratio=1.40 / aq=1:1.00
Language : French
Default : Yes
Forced : No
Color range : Limited
Matrix coefficients : BT.709

Audio #1
ID : 2
Format : E-AC-3
Format/Info : Enhanced Audio Coding 3
Format settings, Endianness : Big
Codec ID : A_EAC3
Duration : 54 min 32 s
Bit rate mode : Constant
Bit rate : 256 kb/s
Channel(s) : 6 channels
Channel positions : Front: L C R, Side: L R, LFE
Sampling rate : 48.0 kHz
Frame rate : 187.500 FPS (256 SPF)
Compression mode : Lossy
Stream size : 99.9 MiB (3%)
Title : Français E-AC3 5.1
Language : French
Service kind : Complete Main
Default : Yes
Forced : No

Audio #2
ID : 3
Format : E-AC-3
Format/Info : Enhanced Audio Coding 3
Format settings, Endianness : Big
Codec ID : A_EAC3
Duration : 54 min 32 s
Bit rate mode : Constant
Bit rate : 256 kb/s
Channel(s) : 6 channels
Channel positions : Front: L C R, Side: L R, LFE
Sampling rate : 48.0 kHz
Frame rate : 187.500 FPS (256 SPF)
Compression mode : Lossy
Stream size : 99.9 MiB (3%)
Title : Anglais E-AC3 5.1
Language : English
Service kind : Complete Main
Default : No
Forced : No

Text
ID : 5
Format : UTF-8
Codec ID : S_TEXT/UTF8
Codec ID/Info : UTF-8 Plain Text
Duration : 52 min 25 s
Bit rate : 58 b/s
Count of elements : 812
Stream size : 22.3 KiB (0%)
Title : Français
Language : French
Default : No
Forced : No





Here and Now S01E04


Here and Now S01E04


Here and Now S01E04


Here and Now S01E04


Here and Now S01E04

All episodes