Featured TV Shows


Sando S01E07

Posted By: Tavaz
1080p (FullHD) / WEB-DL IMDb
Sando S01E07

Sando S01E07
WEB-DL | MKV | 1920x1080 | Spanish | H264 @ 9522 kbps | E-AC-3 @ 640 kbps | 47 min 10 s | 3.35 GiB
Subtitles: English, Spanish
Genre: Comedy


Australia's discount furniture queen, Victoria 'Sando' Sandringham needs to reconnect with her family to revive her business and find personal redemption. The only problem is they mostly hate her. Mostly.

99337fd4a1d34a2f9997c3e67389901d.mkv (3.3 GB)



General
Unique ID : 61112262958857806874408995028057683626 (0x2DF9CB313EC9B4468EAA0D7DB26F76AA)
Complete name : ./99337fd4a1d34a2f9997c3e67389901d.mkv
Format : Matroska
Format version : Version 4 / Version 2
File size : 3.35 GiB
Duration : 47 min 10 s
Overall bit rate : 10.2 Mb/s
Encoded date : UTC 2019-11-21 04:24:59
Writing application : mkvmerge v32.0.0 ('Astral Progressions') 32-bit
Writing library : libebml v1.3.7 + libmatroska v1.5.0

Video
ID : 1
Format : AVC
Format/Info : Advanced Video Codec
Format profile : High@L4
Format settings : CABAC / 4 Ref Frames
Format settings, CABAC : Yes
Format settings, RefFrames : 4 frames
Codec ID : V_MPEG4/ISO/AVC
Duration : 47 min 10 s
Bit rate mode : Constant
Bit rate : 9 523 kb/s
Nominal bit rate : 10 000 kb/s
Width : 1 920 pixels
Height : 1 080 pixels
Display aspect ratio : 16:9
Frame rate mode : Constant
Frame rate : 23.976 (24000/1001) FPS
Color space : YUV
Chroma subsampling : 4:2:0
Bit depth : 8 bits
Scan type : Progressive
Bits/(Pixel*Frame) : 0.192
Stream size : 3.14 GiB (94%)
Default : Yes
Forced : No
Color range : Limited
Color primaries : BT.709
Transfer characteristics : BT.709
Matrix coefficients : BT.709

Audio
ID : 2
Format : E-AC-3
Format/Info : Enhanced Audio Coding 3
Format settings, Endianness : Big
Codec ID : A_EAC3
Duration : 47 min 10 s
Bit rate mode : Constant
Bit rate : 640 kb/s
Channel(s) : 6 channels
Channel positions : Front: L C R, Side: L R, LFE
Sampling rate : 48.0 kHz
Frame rate : 187.500 FPS (256 SPF)
Compression mode : Lossy
Stream size : 216 MiB (6%)
Title : Castellano
Language : Spanish
Service kind : Complete Main
Default : Yes
Forced : No

Text #1
ID : 3
Format : UTF-8
Codec ID : S_TEXT/UTF8
Codec ID/Info : UTF-8 Plain Text
Duration : 12 s 429 ms
Bit rate : 61 b/s
Count of elements : 4
Stream size : 95.0 Bytes (0%)
Title : Castellano [Forzados]
Language : Spanish
Default : No
Forced : Yes

Text #2
ID : 4
Format : UTF-8
Codec ID : S_TEXT/UTF8
Codec ID/Info : UTF-8 Plain Text
Duration : 45 min 48 s
Bit rate : 54 b/s
Count of elements : 745
Stream size : 18.2 KiB (0%)
Title : Castellano [Completos]
Language : Spanish
Default : No
Forced : No

Text #3
ID : 5
Format : UTF-8
Codec ID : S_TEXT/UTF8
Codec ID/Info : UTF-8 Plain Text
Duration : 45 min 49 s
Bit rate : 41 b/s
Count of elements : 569
Stream size : 13.9 KiB (0%)
Title : Inglés [Completos]
Language : English
Default : No
Forced : No





Sando S01E07


Sando S01E07


Sando S01E07


Sando S01E07


Sando S01E07

All episodes