Index
# A B C D E F G H I J K L M N O P Q R S T U V W Y Z
Tags
Language
Tags

Featured TV Shows


High Maintenance S01E01

Posted By: Tavaz
1080p (FullHD) / WEB-DL IMDb
High Maintenance S01E01

High Maintenance S01E01
WEB-DL | MKV | 1920x1080 | English | H264 @ 7987 kbps | E-AC-3 @ 640 kbps | 35 min 52 s | 2.16 GiB
Subtitles: English
Genre: Comedy

Jump into the daily routines of a diverse group of New Yorkers and how they light things up. “The Guy” is a nameless pot deliveryman whose client base includes an eccentric group of characters with neuroses as diverse as the city.

56afba6e1e9941c5bc90b360e418e2d5.mkv (2.2 GB)



General
Unique ID : 227480094259600611630902943149966182884 (0xAB2312913CFCE88DB60D67E6A21349E4)
Complete name : ./56afba6e1e9941c5bc90b360e418e2d5.mkv
Format : Matroska
Format version : Version 4 / Version 2
File size : 2.16 GiB
Duration : 35 min 52 s
Overall bit rate mode : Variable
Overall bit rate : 8 630 kb/s
Encoded date : UTC 2017-07-17 04:36:50
Writing application : mkvmerge v13.0.0 ('The Juggler') 64bit
Writing library : libebml v1.3.4 + libmatroska v1.4.5

Video
ID : 1
Format : AVC
Format/Info : Advanced Video Codec
Format profile : High@L4
Format settings : CABAC / 4 Ref Frames
Format settings, CABAC : Yes
Format settings, RefFrames : 4 frames
Codec ID : V_MPEG4/ISO/AVC
Duration : 35 min 52 s
Bit rate mode : Variable
Bit rate : 7 987 kb/s
Maximum bit rate : 15.0 Mb/s
Width : 1 920 pixels
Height : 1 080 pixels
Display aspect ratio : 16:9
Frame rate mode : Constant
Frame rate : 23.976 (24000/1001) FPS
Color space : YUV
Chroma subsampling : 4:2:0
Bit depth : 8 bits
Scan type : Progressive
Bits/(Pixel*Frame) : 0.161
Stream size : 2.00 GiB (93%)
Default : Yes
Forced : No
Color range : Limited
Color primaries : BT.709
Transfer characteristics : BT.709
Matrix coefficients : BT.709

Audio
ID : 2
Format : E-AC-3
Format/Info : Enhanced Audio Coding 3
Format settings, Endianness : Big
Codec ID : A_EAC3
Duration : 35 min 52 s
Bit rate mode : Constant
Bit rate : 640 kb/s
Channel(s) : 6 channels
Channel positions : Front: L C R, Side: L R, LFE
Sampling rate : 48.0 kHz
Frame rate : 187.500 FPS (256 SPF)
Compression mode : Lossy
Stream size : 164 MiB (7%)
Language : English
Service kind : Complete Main
Default : Yes
Forced : No

Text
ID : 3
Format : UTF-8
Codec ID : S_TEXT/UTF8
Codec ID/Info : UTF-8 Plain Text
Duration : 32 min 51 s
Bit rate : 107 b/s
Count of elements : 771
Stream size : 25.8 KiB (0%)
Language : English
Default : No
Forced : No





High Maintenance S01E01


High Maintenance S01E01


High Maintenance S01E01


High Maintenance S01E01


High Maintenance S01E01

All episodes