Index
# A B C D E F G H I J K L M N O P Q R S T U V W Y Z
Tags
Language
Tags

Featured TV Shows


High Maintenance S01E02

Posted By: Tavaz
1080p (FullHD) / WEB-DL IMDb
High Maintenance S01E02

High Maintenance S01E02
WEB-DL | MKV | 1920x1080 | English | H264 @ 10185 kbps | E-AC-3 @ 640 kbps | 32 min 28 s | 2.46 GiB
Subtitles: English
Genre: Comedy

Jump into the daily routines of a diverse group of New Yorkers and how they light things up. “The Guy” is a nameless pot deliveryman whose client base includes an eccentric group of characters with neuroses as diverse as the city.

259fcb9418f04bef8d1bd8563a1f7c7d.mkv (2.5 GB)



General
Unique ID : 226300375911566284698341448227892641686 (0xAA3FDDF64B95D3F5B9FF0ACF5AE23F96)
Complete name : ./259fcb9418f04bef8d1bd8563a1f7c7d.mkv
Format : Matroska
Format version : Version 4 / Version 2
File size : 2.46 GiB
Duration : 32 min 28 s
Overall bit rate mode : Variable
Overall bit rate : 10.8 Mb/s
Encoded date : UTC 2017-07-17 04:42:16
Writing application : mkvmerge v13.0.0 ('The Juggler') 64bit
Writing library : libebml v1.3.4 + libmatroska v1.4.5

Video
ID : 1
Format : AVC
Format/Info : Advanced Video Codec
Format profile : High@L4
Format settings : CABAC / 4 Ref Frames
Format settings, CABAC : Yes
Format settings, RefFrames : 4 frames
Codec ID : V_MPEG4/ISO/AVC
Duration : 32 min 28 s
Bit rate mode : Variable
Bit rate : 10.2 Mb/s
Maximum bit rate : 15.0 Mb/s
Width : 1 920 pixels
Height : 1 080 pixels
Display aspect ratio : 16:9
Frame rate mode : Constant
Frame rate : 23.976 (24000/1001) FPS
Color space : YUV
Chroma subsampling : 4:2:0
Bit depth : 8 bits
Scan type : Progressive
Bits/(Pixel*Frame) : 0.205
Stream size : 2.31 GiB (94%)
Default : Yes
Forced : No
Color range : Limited
Color primaries : BT.709
Transfer characteristics : BT.709
Matrix coefficients : BT.709

Audio
ID : 2
Format : E-AC-3
Format/Info : Enhanced Audio Coding 3
Format settings, Endianness : Big
Codec ID : A_EAC3
Duration : 32 min 28 s
Bit rate mode : Constant
Bit rate : 640 kb/s
Channel(s) : 6 channels
Channel positions : Front: L C R, Side: L R, LFE
Sampling rate : 48.0 kHz
Frame rate : 187.500 FPS (256 SPF)
Compression mode : Lossy
Stream size : 149 MiB (6%)
Language : English
Service kind : Complete Main
Default : Yes
Forced : No

Text
ID : 3
Format : UTF-8
Codec ID : S_TEXT/UTF8
Codec ID/Info : UTF-8 Plain Text
Duration : 29 min 37 s
Bit rate : 90 b/s
Count of elements : 493
Stream size : 19.7 KiB (0%)
Language : English
Default : No
Forced : No





High Maintenance S01E02


High Maintenance S01E02


High Maintenance S01E02


High Maintenance S01E02


High Maintenance S01E02

All episodes