Index
# A B C D E F G H I J K L M N O P Q R S T U V W Y Z
Tags
Language
Tags

Featured TV Shows


High Maintenance S01E02

Posted By: Tavaz
720p (HD) / WEB-DL IMDb
High Maintenance S01E02

High Maintenance S01E02
WEB-DL | MKV | 1280x720 | English | H264 @ 2830 kbps | E-AC-3 @ 640 kbps | 32 min 28 s | 807 MiB
Subtitles: English
Genre: Comedy

Jump into the daily routines of a diverse group of New Yorkers and how they light things up. “The Guy” is a nameless pot deliveryman whose client base includes an eccentric group of characters with neuroses as diverse as the city.

7420c71fee78418386d35e0e3cd12367.mkv (806.6 MB)



General
Unique ID : 249621168971852817072592151370577093616 (0xBBCB49D5145409E69E7AD2F71D4223F0)
Complete name : ./7420c71fee78418386d35e0e3cd12367.mkv
Format : Matroska
Format version : Version 4 / Version 2
File size : 807 MiB
Duration : 32 min 28 s
Overall bit rate mode : Variable
Overall bit rate : 3 472 kb/s
Encoded date : UTC 2017-11-07 06:22:35
Writing application : mkvmerge v13.0.0 ('The Juggler') 64bit
Writing library : libebml v1.3.4 + libmatroska v1.4.5

Video
ID : 1
Format : AVC
Format/Info : Advanced Video Codec
Format profile : High@L3.1
Format settings : CABAC / 5 Ref Frames
Format settings, CABAC : Yes
Format settings, RefFrames : 5 frames
Codec ID : V_MPEG4/ISO/AVC
Duration : 32 min 28 s
Bit rate mode : Variable
Bit rate : 2 830 kb/s
Maximum bit rate : 4 500 kb/s
Width : 1 280 pixels
Height : 720 pixels
Display aspect ratio : 16:9
Frame rate mode : Constant
Frame rate : 23.976 (24000/1001) FPS
Color space : YUV
Chroma subsampling : 4:2:0
Bit depth : 8 bits
Scan type : Progressive
Bits/(Pixel*Frame) : 0.128
Stream size : 657 MiB (82%)
Default : Yes
Forced : No
Color range : Limited
Color primaries : BT.709
Transfer characteristics : BT.709
Matrix coefficients : BT.709

Audio
ID : 2
Format : E-AC-3
Format/Info : Enhanced Audio Coding 3
Format settings, Endianness : Big
Codec ID : A_EAC3
Duration : 32 min 28 s
Bit rate mode : Constant
Bit rate : 640 kb/s
Channel(s) : 6 channels
Channel positions : Front: L C R, Side: L R, LFE
Sampling rate : 48.0 kHz
Frame rate : 187.500 FPS (256 SPF)
Compression mode : Lossy
Stream size : 149 MiB (18%)
Language : English
Service kind : Complete Main
Default : Yes
Forced : No

Text
ID : 3
Format : UTF-8
Codec ID : S_TEXT/UTF8
Codec ID/Info : UTF-8 Plain Text
Duration : 29 min 37 s
Bit rate : 90 b/s
Count of elements : 493
Stream size : 19.7 KiB (0%)
Language : English
Default : No
Forced : No





High Maintenance S01E02


High Maintenance S01E02


High Maintenance S01E02


High Maintenance S01E02


High Maintenance S01E02

All episodes