Index
# A B C D E F G H I J K L M N O P Q R S T U V W Y Z
Tags
Language
Tags

Featured TV Shows


High Maintenance S01E05

Posted By: Tavaz
1080p (FullHD) / WEB-DL IMDb
High Maintenance S01E05

High Maintenance S01E05
WEB-DL | MKV | 1920x1080 | English | H264 @ 8239 kbps | E-AC-3 @ 640 kbps | 31 min 20 s | 1.94 GiB
Subtitles: English
Genre: Comedy

Jump into the daily routines of a diverse group of New Yorkers and how they light things up. “The Guy” is a nameless pot deliveryman whose client base includes an eccentric group of characters with neuroses as diverse as the city.

646d66221b564c6cbc5b7bb039895336.mkv (1.9 GB)



General
Unique ID : 205501037820921594352650336445563366060 (0x9A9A0F6B8220D4FAB3ACD4EE880B6AAC)
Complete name : ./646d66221b564c6cbc5b7bb039895336.mkv
Format : Matroska
Format version : Version 4 / Version 2
File size : 1.94 GiB
Duration : 31 min 20 s
Overall bit rate mode : Variable
Overall bit rate : 8 882 kb/s
Encoded date : UTC 2017-07-17 04:56:45
Writing application : mkvmerge v13.0.0 ('The Juggler') 64bit
Writing library : libebml v1.3.4 + libmatroska v1.4.5

Video
ID : 1
Format : AVC
Format/Info : Advanced Video Codec
Format profile : High@L4
Format settings : CABAC / 4 Ref Frames
Format settings, CABAC : Yes
Format settings, RefFrames : 4 frames
Codec ID : V_MPEG4/ISO/AVC
Duration : 31 min 20 s
Bit rate mode : Variable
Bit rate : 8 240 kb/s
Maximum bit rate : 15.0 Mb/s
Width : 1 920 pixels
Height : 1 080 pixels
Display aspect ratio : 16:9
Frame rate mode : Constant
Frame rate : 23.976 (24000/1001) FPS
Color space : YUV
Chroma subsampling : 4:2:0
Bit depth : 8 bits
Scan type : Progressive
Bits/(Pixel*Frame) : 0.166
Stream size : 1.80 GiB (93%)
Default : Yes
Forced : No
Color range : Limited
Color primaries : BT.709
Transfer characteristics : BT.709
Matrix coefficients : BT.709

Audio
ID : 2
Format : E-AC-3
Format/Info : Enhanced Audio Coding 3
Format settings, Endianness : Big
Codec ID : A_EAC3
Duration : 31 min 20 s
Bit rate mode : Constant
Bit rate : 640 kb/s
Channel(s) : 6 channels
Channel positions : Front: L C R, Side: L R, LFE
Sampling rate : 48.0 kHz
Frame rate : 187.500 FPS (256 SPF)
Compression mode : Lossy
Stream size : 143 MiB (7%)
Language : English
Service kind : Complete Main
Default : Yes
Forced : No

Text
ID : 3
Format : UTF-8
Codec ID : S_TEXT/UTF8
Codec ID/Info : UTF-8 Plain Text
Duration : 27 min 37 s
Bit rate : 94 b/s
Count of elements : 584
Stream size : 19.2 KiB (0%)
Language : English
Default : No
Forced : No





High Maintenance S01E05


High Maintenance S01E05


High Maintenance S01E05


High Maintenance S01E05


High Maintenance S01E05

All episodes