Index
# A B C D E F G H I J K L M N O P Q R S T U V W Y Z
Tags
Language
Tags

Featured TV Shows


High Maintenance S02E02

Posted By: Tavaz
720p (HD) / WEB-DL IMDb
High Maintenance S02E02

High Maintenance S02E02
WEB-DL | MKV | 1280x720 | English | H264 @ 2554 kbps | E-AC-3 @ 640 kbps | 28 min 47 s | 671 MiB
Subtitles: English
Genre: Comedy

Jump into the daily routines of a diverse group of New Yorkers and how they light things up. “The Guy” is a nameless pot deliveryman whose client base includes an eccentric group of characters with neuroses as diverse as the city.

High.Maintenance.2016.S02E02.REPACK.Fagin.720p.AMZN.WEB-DL.DDP5.1.H.264-monkee.mkv (671.4 MB)



General
Unique ID : 254498328002983849415619834492890663203 (0xBF7698567D9D8977836D3708A3044923)
Complete name : ./High.Maintenance.2016.S02E02.REPACK.Fagin.720p.AMZN.WEB-DL.DDP5.1.H.264-monkee.mkv
Format : Matroska
Format version : Version 4 / Version 2
File size : 671 MiB
Duration : 28 min 47 s
Overall bit rate mode : Variable
Overall bit rate : 3 260 kb/s
Writing application : mkvmerge v12.0.0 ('Trust / Lust') 64bit
Writing library : libebml v1.3.4 + libmatroska v1.4.5

Video
ID : 1
Format : AVC
Format/Info : Advanced Video Codec
Format profile : High@L3.1
Format settings : CABAC / 5 Ref Frames
Format settings, CABAC : Yes
Format settings, RefFrames : 5 frames
Codec ID : V_MPEG4/ISO/AVC
Duration : 28 min 47 s
Bit rate mode : Variable
Bit rate : 2 555 kb/s
Maximum bit rate : 4 500 kb/s
Width : 1 280 pixels
Height : 720 pixels
Display aspect ratio : 16:9
Frame rate mode : Constant
Frame rate : 23.976 (24000/1001) FPS
Color space : YUV
Chroma subsampling : 4:2:0
Bit depth : 8 bits
Scan type : Progressive
Bits/(Pixel*Frame) : 0.116
Stream size : 526 MiB (78%)
Default : Yes
Forced : No
Color range : Limited
Color primaries : BT.709
Transfer characteristics : BT.709
Matrix coefficients : BT.709
Statistics Tags Issue : mkvmerge v12.0.0 ('Trust / Lust') 64bit 2018-01-27 04:41:17 / mkvmerge v12.0.0 ('Trust / Lust') 64bit
FromStats_BitRate : 2617296
FromStats_Duration : 00:28:47.809000000
FromStats_FrameCount : 41426
FromStats_StreamSize : 565273517

Audio
ID : 2
Format : E-AC-3
Format/Info : Enhanced Audio Coding 3
Format settings, Endianness : Big
Codec ID : A_EAC3
Duration : 28 min 47 s
Bit rate mode : Constant
Bit rate : 640 kb/s
Channel(s) : 6 channels
Channel positions : Front: L C R, Side: L R, LFE
Sampling rate : 48.0 kHz
Frame rate : 187.500 FPS (256 SPF)
Compression mode : Lossy
Delay relative to video : 22 ms
Stream size : 132 MiB (20%)
Language : English
Service kind : Complete Main
Default : Yes
Forced : No
Statistics Tags Issue : mkvmerge v12.0.0 ('Trust / Lust') 64bit 2018-01-27 04:41:17 / mkvmerge v12.0.0 ('Trust / Lust') 64bit
FromStats_BitRate : 640000
FromStats_Duration : 00:28:47.744000000
FromStats_FrameCount : 53992
FromStats_StreamSize : 138219520

Text #1
ID : 3
Format : UTF-8
Codec ID : S_TEXT/UTF8
Codec ID/Info : UTF-8 Plain Text
Language : English
Default : No
Forced : No
Statistics Tags Issue : mkvmerge v12.0.0 ('Trust / Lust') 64bit 2018-01-27 04:41:17 / mkvmerge v12.0.0 ('Trust / Lust') 64bit
FromStats_BitRate : 108
FromStats_Duration : 00:28:12.583000000
FromStats_FrameCount : 600
FromStats_StreamSize : 23020

Text #2
ID : 4
Format : UTF-8
Codec ID : S_TEXT/UTF8
Codec ID/Info : UTF-8 Plain Text
Title : SDH
Language : English
Default : No
Forced : No
Statistics Tags Issue : mkvmerge v12.0.0 ('Trust / Lust') 64bit 2018-01-27 04:41:17 / mkvmerge v12.0.0 ('Trust / Lust') 64bit
FromStats_BitRate : 113
FromStats_Duration : 00:28:34.792000000
FromStats_FrameCount : 625
FromStats_StreamSize : 24345





High Maintenance S02E02


High Maintenance S02E02


High Maintenance S02E02


High Maintenance S02E02


High Maintenance S02E02

All episodes