Index
# A B C D E F G H I J K L M N O P Q R S T U V W Y Z
Tags
Language
Tags

Featured TV Shows


High Maintenance S02E03

Posted By: Tavaz
SD / WEB-DL IMDb
High Maintenance S02E03

High Maintenance S02E03
WEB-DL | MKV | 1920x1080 | English | H264 @ 7861 kbps | E-AC-3 @ 640 kbps | 29 min 25 s | 1.78 GiB
Subtitles: English
Genre: Comedy

Jump into the daily routines of a diverse group of New Yorkers and how they light things up. “The Guy” is a nameless pot deliveryman whose client base includes an eccentric group of characters with neuroses as diverse as the city.

High.Maintenance.2016.S02E03.REPACK.Namaste.720p.AMZN.WEB-DL.DDP5.1.H.264-monkee.mkv (641.9 MB)
High.Maintenance.2016.S02E03.REPACK.Namaste.1080p.AMZN.WEB-DL.DDP5.1.H.264-monkee.mkv (1.8 GB)
High.Maintenance.2016.S02E03.REPACK.Namaste.AMZN.WEB-DL.AAC2.0.H.264-monkee.mkv (166.1 MB)



General
Unique ID : 206039891413116379451962022998245670409 (0x9B01D6F40754E9E5B42A96E45C3C7E09)
Complete name : ./High.Maintenance.2016.S02E03.REPACK.Namaste.1080p.AMZN.WEB-DL.DDP5.1.H.264-monkee.mkv
Format : Matroska
Format version : Version 4 / Version 2
File size : 1.78 GiB
Duration : 29 min 25 s
Overall bit rate mode : Variable
Overall bit rate : 8 674 kb/s
Writing application : mkvmerge v12.0.0 ('Trust / Lust') 64bit
Writing library : libebml v1.3.4 + libmatroska v1.4.5

Video
ID : 1
Format : AVC
Format/Info : Advanced Video Codec
Format profile : High@L4
Format settings : CABAC / 4 Ref Frames
Format settings, CABAC : Yes
Format settings, RefFrames : 4 frames
Codec ID : V_MPEG4/ISO/AVC
Duration : 29 min 25 s
Bit rate mode : Variable
Bit rate : 7 862 kb/s
Maximum bit rate : 15.0 Mb/s
Width : 1 920 pixels
Height : 1 080 pixels
Display aspect ratio : 16:9
Frame rate mode : Constant
Frame rate : 23.976 (24000/1001) FPS
Color space : YUV
Chroma subsampling : 4:2:0
Bit depth : 8 bits
Scan type : Progressive
Bits/(Pixel*Frame) : 0.158
Stream size : 1.62 GiB (91%)
Default : Yes
Forced : No
Color range : Limited
Color primaries : BT.709
Transfer characteristics : BT.709
Matrix coefficients : BT.709
Statistics Tags Issue : mkvmerge v12.0.0 ('Trust / Lust') 64bit 2018-02-03 04:14:23 / mkvmerge v12.0.0 ('Trust / Lust') 64bit
FromStats_BitRate : 8031814
FromStats_Duration : 00:29:25.181000000
FromStats_FrameCount : 42322
FromStats_StreamSize : 1772200719

Audio
ID : 2
Format : E-AC-3
Format/Info : Enhanced Audio Coding 3
Format settings, Endianness : Big
Codec ID : A_EAC3
Duration : 29 min 25 s
Bit rate mode : Constant
Bit rate : 640 kb/s
Channel(s) : 6 channels
Channel positions : Front: L C R, Side: L R, LFE
Sampling rate : 48.0 kHz
Frame rate : 187.500 FPS (256 SPF)
Compression mode : Lossy
Delay relative to video : 18 ms
Stream size : 135 MiB (7%)
Language : English
Service kind : Complete Main
Default : Yes
Forced : No
Statistics Tags Issue : mkvmerge v12.0.0 ('Trust / Lust') 64bit 2018-02-03 04:14:23 / mkvmerge v12.0.0 ('Trust / Lust') 64bit
FromStats_BitRate : 640000
FromStats_Duration : 00:29:25.120000000
FromStats_FrameCount : 55160
FromStats_StreamSize : 141209600

Text #1
ID : 3
Format : UTF-8
Codec ID : S_TEXT/UTF8
Codec ID/Info : UTF-8 Plain Text
Language : English
Default : No
Forced : No
Statistics Tags Issue : mkvmerge v12.0.0 ('Trust / Lust') 64bit 2018-02-03 04:14:23 / mkvmerge v12.0.0 ('Trust / Lust') 64bit
FromStats_BitRate : 96
FromStats_Duration : 00:29:11.583000000
FromStats_FrameCount : 574
FromStats_StreamSize : 21034

Text #2
ID : 4
Format : UTF-8
Codec ID : S_TEXT/UTF8
Codec ID/Info : UTF-8 Plain Text
Title : SDH
Language : English
Default : No
Forced : No
Statistics Tags Issue : mkvmerge v12.0.0 ('Trust / Lust') 64bit 2018-02-03 04:14:23 / mkvmerge v12.0.0 ('Trust / Lust') 64bit
FromStats_BitRate : 104
FromStats_Duration : 00:29:14.833000000
FromStats_FrameCount : 621
FromStats_StreamSize : 22902





High Maintenance S02E03


High Maintenance S02E03


High Maintenance S02E03


High Maintenance S02E03


High Maintenance S02E03

All episodes