Index
# A B C D E F G H I J K L M N O P Q R S T U V W Y Z
Tags
Language
Tags

Featured TV Shows


High Maintenance S02E04

Posted By: Tavaz
720p (HD) / WEB-DL IMDb
High Maintenance S02E04

High Maintenance S02E04
WEB-DL | MKV | 1280x720 | English | H264 @ 3004 kbps | E-AC-3 @ 640 kbps | 28 min 6 s | 748 MiB
Subtitles: English
Genre: Comedy

Jump into the daily routines of a diverse group of New Yorkers and how they light things up. “The Guy” is a nameless pot deliveryman whose client base includes an eccentric group of characters with neuroses as diverse as the city.

3ca6ce30a6be4ac8bddff55b65295e65.mkv (747.7 MB)



General
Unique ID : 179137101462779441671504402542151338801 (0x86C48D004C2BC4BBA1780D29A8780B31)
Complete name : ./3ca6ce30a6be4ac8bddff55b65295e65.mkv
Format : Matroska
Format version : Version 4 / Version 2
File size : 748 MiB
Duration : 28 min 6 s
Overall bit rate mode : Variable
Overall bit rate : 3 718 kb/s
Writing application : mkvmerge v12.0.0 ('Trust / Lust') 64bit
Writing library : libebml v1.3.4 + libmatroska v1.4.5

Video
ID : 1
Format : AVC
Format/Info : Advanced Video Codec
Format profile : High@L3.1
Format settings : CABAC / 5 Ref Frames
Format settings, CABAC : Yes
Format settings, RefFrames : 5 frames
Codec ID : V_MPEG4/ISO/AVC
Duration : 28 min 6 s
Bit rate mode : Variable
Bit rate : 3 004 kb/s
Maximum bit rate : 4 500 kb/s
Width : 1 280 pixels
Height : 720 pixels
Display aspect ratio : 16:9
Frame rate mode : Constant
Frame rate : 23.976 (24000/1001) FPS
Color space : YUV
Chroma subsampling : 4:2:0
Bit depth : 8 bits
Scan type : Progressive
Bits/(Pixel*Frame) : 0.136
Stream size : 604 MiB (81%)
Default : Yes
Forced : No
Color range : Limited
Color primaries : BT.709
Transfer characteristics : BT.709
Matrix coefficients : BT.709
Statistics Tags Issue : mkvmerge v12.0.0 ('Trust / Lust') 64bit 2018-02-10 04:18:48 / mkvmerge v12.0.0 ('Trust / Lust') 64bit
FromStats_BitRate : 3075948
FromStats_Duration : 00:28:06.936000000
FromStats_FrameCount : 40446
FromStats_StreamSize : 648616041

Audio
ID : 2
Format : E-AC-3
Format/Info : Enhanced Audio Coding 3
Format settings, Endianness : Big
Codec ID : A_EAC3
Duration : 28 min 6 s
Bit rate mode : Constant
Bit rate : 640 kb/s
Channel(s) : 6 channels
Channel positions : Front: L C R, Side: L R, LFE
Sampling rate : 48.0 kHz
Frame rate : 187.500 FPS (256 SPF)
Compression mode : Lossy
Delay relative to video : 3 ms
Stream size : 129 MiB (17%)
Language : English
Service kind : Complete Main
Default : Yes
Forced : No
Statistics Tags Issue : mkvmerge v12.0.0 ('Trust / Lust') 64bit 2018-02-10 04:18:48 / mkvmerge v12.0.0 ('Trust / Lust') 64bit
FromStats_BitRate : 640000
FromStats_Duration : 00:28:06.880000000
FromStats_FrameCount : 52715
FromStats_StreamSize : 134950400

Text #1
ID : 3
Format : UTF-8
Codec ID : S_TEXT/UTF8
Codec ID/Info : UTF-8 Plain Text
Language : English
Default : No
Forced : No
Statistics Tags Issue : mkvmerge v12.0.0 ('Trust / Lust') 64bit 2018-02-10 04:18:48 / mkvmerge v12.0.0 ('Trust / Lust') 64bit
FromStats_BitRate : 68
FromStats_Duration : 00:27:51.459000000
FromStats_FrameCount : 433
FromStats_StreamSize : 14245

Text #2
ID : 4
Format : UTF-8
Codec ID : S_TEXT/UTF8
Codec ID/Info : UTF-8 Plain Text
Title : SDH
Language : English
Default : No
Forced : No
Statistics Tags Issue : mkvmerge v12.0.0 ('Trust / Lust') 64bit 2018-02-10 04:18:48 / mkvmerge v12.0.0 ('Trust / Lust') 64bit
FromStats_BitRate : 77
FromStats_Duration : 00:27:56.875000000
FromStats_FrameCount : 506
FromStats_StreamSize : 16236





High Maintenance S02E04


High Maintenance S02E04


High Maintenance S02E04


High Maintenance S02E04


High Maintenance S02E04

All episodes