Index
# A B C D E F G H I J K L M N O P Q R S T U V W Y Z
Tags
Language
Tags

Featured TV Shows


High Maintenance S02E04

Posted By: Tavaz
SD / WEB-DL IMDb
High Maintenance S02E04

High Maintenance S02E04
WEB-DL | MKV | 720x480 | English | H264 @ 907 kbps | E-AC-3 @ 640 kbps | 28 min 6 s | 318 MiB
Subtitles: English
Genre: Comedy

Jump into the daily routines of a diverse group of New Yorkers and how they light things up. “The Guy” is a nameless pot deliveryman whose client base includes an eccentric group of characters with neuroses as diverse as the city.

7166bb35b2354a709ebdc1253174f61e.mkv (317.5 MB)



General
Complete name : ./7166bb35b2354a709ebdc1253174f61e.mkv
Format : Matroska
Format version : Version 4 / Version 2
File size : 318 MiB
Duration : 28 min 6 s
Overall bit rate mode : Variable
Overall bit rate : 1 579 kb/s
Writing application : mkvmerge v12.0.0 ('Trust / Lust') 64bit
Writing library : libebml v1.3.4 + libmatroska v1.4.5

Video
ID : 1
Format : AVC
Format/Info : Advanced Video Codec
Format profile : Main@L3
Format settings : CABAC / 5 Ref Frames
Format settings, CABAC : Yes
Format settings, RefFrames : 5 frames
Codec ID : V_MPEG4/ISO/AVC
Duration : 28 min 6 s
Bit rate mode : Variable
Bit rate : 908 kb/s
Maximum bit rate : 2 400 kb/s
Width : 720 pixels
Height : 480 pixels
Display aspect ratio : 16:9
Frame rate mode : Constant
Frame rate : 23.976 (24000/1001) FPS
Color space : YUV
Chroma subsampling : 4:2:0
Bit depth : 8 bits
Scan type : Progressive
Bits/(Pixel*Frame) : 0.110
Stream size : 183 MiB (57%)
Default : Yes
Forced : No
Color range : Limited
Color primaries : BT.709
Transfer characteristics : BT.709
Matrix coefficients : BT.709
Statistics Tags Issue : mkvmerge v12.0.0 ('Trust / Lust') 64bit 2018-02-10 04:17:03 / mkvmerge v12.0.0 ('Trust / Lust') 64bit
FromStats_BitRate : 936985
FromStats_Duration : 00:28:06.936000000
FromStats_FrameCount : 40446
FromStats_StreamSize : 197579244

Audio
ID : 2
Format : E-AC-3
Format/Info : Enhanced Audio Coding 3
Format settings, Endianness : Big
Codec ID : A_EAC3
Duration : 28 min 6 s
Bit rate mode : Constant
Bit rate : 640 kb/s
Channel(s) : 6 channels
Channel positions : Front: L C R, Side: L R, LFE
Sampling rate : 48.0 kHz
Frame rate : 187.500 FPS (256 SPF)
Compression mode : Lossy
Delay relative to video : 3 ms
Stream size : 129 MiB (41%)
Language : English
Service kind : Complete Main
Default : Yes
Forced : No
Statistics Tags Issue : mkvmerge v12.0.0 ('Trust / Lust') 64bit 2018-02-10 04:17:03 / mkvmerge v12.0.0 ('Trust / Lust') 64bit
FromStats_BitRate : 640000
FromStats_Duration : 00:28:06.880000000
FromStats_FrameCount : 52715
FromStats_StreamSize : 134950400

Text #1
ID : 3
Format : UTF-8
Codec ID : S_TEXT/UTF8
Codec ID/Info : UTF-8 Plain Text
Language : English
Default : No
Forced : No
Statistics Tags Issue : mkvmerge v12.0.0 ('Trust / Lust') 64bit 2018-02-10 04:17:03 / mkvmerge v12.0.0 ('Trust / Lust') 64bit
FromStats_BitRate : 68
FromStats_Duration : 00:27:51.459000000
FromStats_FrameCount : 433
FromStats_StreamSize : 14245

Text #2
ID : 4
Format : UTF-8
Codec ID : S_TEXT/UTF8
Codec ID/Info : UTF-8 Plain Text
Title : SDH
Language : English
Default : No
Forced : No
Statistics Tags Issue : mkvmerge v12.0.0 ('Trust / Lust') 64bit 2018-02-10 04:17:03 / mkvmerge v12.0.0 ('Trust / Lust') 64bit
FromStats_BitRate : 77
FromStats_Duration : 00:27:56.875000000
FromStats_FrameCount : 506
FromStats_StreamSize : 16236





High Maintenance S02E04


High Maintenance S02E04


High Maintenance S02E04


High Maintenance S02E04


High Maintenance S02E04

All episodes