Index
# A B C D E F G H I J K L M N O P Q R S T U V W Y Z
Tags
Language
Tags

Featured TV Shows


High Maintenance S02E05

Posted By: Tavaz
SD / WEB-DL IMDb
High Maintenance S02E05

High Maintenance S02E05
WEB-DL | MKV | 720x480 | English | H264 @ 625 kbps | E-AC-3 @ 640 kbps | 30 min 42 s | 283 MiB
Subtitles: English
Genre: Comedy

Jump into the daily routines of a diverse group of New Yorkers and how they light things up. “The Guy” is a nameless pot deliveryman whose client base includes an eccentric group of characters with neuroses as diverse as the city.

d94617a48dfd40c19efcf77c4b75892f.mkv (283.5 MB)



General
Unique ID : 193503847265115894239681517970685145560 (0x91937C41E07E130A8E136B3FBAD7B1D8)
Complete name : ./d94617a48dfd40c19efcf77c4b75892f.mkv
Format : Matroska
Format version : Version 4 / Version 2
File size : 283 MiB
Duration : 30 min 42 s
Overall bit rate mode : Variable
Overall bit rate : 1 291 kb/s
Writing application : mkvmerge v12.0.0 ('Trust / Lust') 64bit
Writing library : libebml v1.3.4 + libmatroska v1.4.5

Video
ID : 1
Format : AVC
Format/Info : Advanced Video Codec
Format profile : Main@L3
Format settings : CABAC / 5 Ref Frames
Format settings, CABAC : Yes
Format settings, RefFrames : 5 frames
Codec ID : V_MPEG4/ISO/AVC
Duration : 30 min 42 s
Bit rate mode : Variable
Bit rate : 625 kb/s
Maximum bit rate : 2 400 kb/s
Width : 720 pixels
Height : 480 pixels
Display aspect ratio : 16:9
Frame rate mode : Constant
Frame rate : 23.976 (24000/1001) FPS
Color space : YUV
Chroma subsampling : 4:2:0
Bit depth : 8 bits
Scan type : Progressive
Bits/(Pixel*Frame) : 0.075
Stream size : 137 MiB (48%)
Default : Yes
Forced : No
Color range : Limited
Color primaries : BT.709
Transfer characteristics : BT.709
Matrix coefficients : BT.709
Statistics Tags Issue : mkvmerge v12.0.0 ('Trust / Lust') 64bit 2018-02-17 12:25:01 / mkvmerge v12.0.0 ('Trust / Lust') 64bit
FromStats_BitRate : 648791
FromStats_Duration : 00:30:42.132000000
FromStats_FrameCount : 44167
FromStats_StreamSize : 149394896

Audio
ID : 2
Format : E-AC-3
Format/Info : Enhanced Audio Coding 3
Format settings, Endianness : Big
Codec ID : A_EAC3
Duration : 30 min 42 s
Bit rate mode : Constant
Bit rate : 640 kb/s
Channel(s) : 6 channels
Channel positions : Front: L C R, Side: L R, LFE
Sampling rate : 48.0 kHz
Frame rate : 187.500 FPS (256 SPF)
Compression mode : Lossy
Delay relative to video : 13 ms
Stream size : 141 MiB (50%)
Language : English
Service kind : Complete Main
Default : Yes
Forced : No
Statistics Tags Issue : mkvmerge v12.0.0 ('Trust / Lust') 64bit 2018-02-17 12:25:01 / mkvmerge v12.0.0 ('Trust / Lust') 64bit
FromStats_BitRate : 640000
FromStats_Duration : 00:30:42.080000000
FromStats_FrameCount : 57565
FromStats_StreamSize : 147366400

Text #1
ID : 3
Format : UTF-8
Codec ID : S_TEXT/UTF8
Codec ID/Info : UTF-8 Plain Text
Language : English
Default : No
Forced : No
Statistics Tags Issue : mkvmerge v12.0.0 ('Trust / Lust') 64bit 2018-02-17 12:25:01 / mkvmerge v12.0.0 ('Trust / Lust') 64bit
FromStats_BitRate : 64
FromStats_Duration : 00:30:16.209000000
FromStats_FrameCount : 475
FromStats_StreamSize : 14672

Text #2
ID : 4
Format : UTF-8
Codec ID : S_TEXT/UTF8
Codec ID/Info : UTF-8 Plain Text
Title : SDH
Language : English
Default : No
Forced : No
Statistics Tags Issue : mkvmerge v12.0.0 ('Trust / Lust') 64bit 2018-02-17 12:25:01 / mkvmerge v12.0.0 ('Trust / Lust') 64bit
FromStats_BitRate : 74
FromStats_Duration : 00:30:29.292000000
FromStats_FrameCount : 557
FromStats_StreamSize : 17075





High Maintenance S02E05


High Maintenance S02E05


High Maintenance S02E05


High Maintenance S02E05


High Maintenance S02E05

All episodes