Index
# A B C D E F G H I J K L M N O P Q R S T U V W Y Z
Tags
Language
Tags

Featured TV Shows


High Maintenance S02E06

Posted By: Tavaz
SD / WEB-DL IMDb
High Maintenance S02E06

High Maintenance S02E06
WEB-DL | MKV | 720x480 | English | H264 @ 731 kbps | E-AC-3 @ 640 kbps | 27 min 26 s | 275 MiB
Subtitles: English
Genre: Comedy

Jump into the daily routines of a diverse group of New Yorkers and how they light things up. “The Guy” is a nameless pot deliveryman whose client base includes an eccentric group of characters with neuroses as diverse as the city.

fec7efa695ab436eb44f8498c1b062dc.mkv (274.6 MB)



General
Unique ID : 231714518862952814930696354728388800777 (0xAE5297D1A637652AA97FF0D5014F3109)
Complete name : ./fec7efa695ab436eb44f8498c1b062dc.mkv
Format : Matroska
Format version : Version 4 / Version 2
File size : 275 MiB
Duration : 27 min 26 s
Overall bit rate mode : Variable
Overall bit rate : 1 399 kb/s
Writing application : mkvmerge v12.0.0 ('Trust / Lust') 64bit
Writing library : libebml v1.3.4 + libmatroska v1.4.5

Video
ID : 1
Format : AVC
Format/Info : Advanced Video Codec
Format profile : Main@L3
Format settings : CABAC / 5 Ref Frames
Format settings, CABAC : Yes
Format settings, RefFrames : 5 frames
Codec ID : V_MPEG4/ISO/AVC
Duration : 27 min 26 s
Bit rate mode : Variable
Bit rate : 731 kb/s
Maximum bit rate : 2 400 kb/s
Width : 720 pixels
Height : 480 pixels
Display aspect ratio : 16:9
Frame rate mode : Constant
Frame rate : 23.976 (24000/1001) FPS
Color space : YUV
Chroma subsampling : 4:2:0
Bit depth : 8 bits
Scan type : Progressive
Bits/(Pixel*Frame) : 0.088
Stream size : 144 MiB (52%)
Default : Yes
Forced : No
Color range : Limited
Color primaries : BT.709
Transfer characteristics : BT.709
Matrix coefficients : BT.709
Statistics Tags Issue : mkvmerge v12.0.0 ('Trust / Lust') 64bit 2018-02-24 13:35:07 / mkvmerge v12.0.0 ('Trust / Lust') 64bit
FromStats_BitRate : 757016
FromStats_Duration : 00:27:26.604000000
FromStats_FrameCount : 39479
FromStats_StreamSize : 155813384

Audio
ID : 2
Format : E-AC-3
Format/Info : Enhanced Audio Coding 3
Format settings, Endianness : Big
Codec ID : A_EAC3
Duration : 27 min 26 s
Bit rate mode : Constant
Bit rate : 640 kb/s
Channel(s) : 6 channels
Channel positions : Front: L C R, Side: L R, LFE
Sampling rate : 48.0 kHz
Frame rate : 187.500 FPS (256 SPF)
Compression mode : Lossy
Delay relative to video : 9 ms
Stream size : 126 MiB (46%)
Language : English
Service kind : Complete Main
Default : Yes
Forced : No
Statistics Tags Issue : mkvmerge v12.0.0 ('Trust / Lust') 64bit 2018-02-24 13:35:07 / mkvmerge v12.0.0 ('Trust / Lust') 64bit
FromStats_BitRate : 640000
FromStats_Duration : 00:27:26.560000000
FromStats_FrameCount : 51455
FromStats_StreamSize : 131724800

Text #1
ID : 3
Format : UTF-8
Codec ID : S_TEXT/UTF8
Codec ID/Info : UTF-8 Plain Text
Language : English
Default : No
Forced : No
Statistics Tags Issue : mkvmerge v12.0.0 ('Trust / Lust') 64bit 2018-02-24 13:35:07 / mkvmerge v12.0.0 ('Trust / Lust') 64bit
FromStats_BitRate : 65
FromStats_Duration : 00:27:16.499000000
FromStats_FrameCount : 386
FromStats_StreamSize : 13484

Text #2
ID : 4
Format : UTF-8
Codec ID : S_TEXT/UTF8
Codec ID/Info : UTF-8 Plain Text
Title : SDH
Language : English
Default : No
Forced : No
Statistics Tags Issue : mkvmerge v12.0.0 ('Trust / Lust') 64bit 2018-02-24 13:35:07 / mkvmerge v12.0.0 ('Trust / Lust') 64bit
FromStats_BitRate : 74
FromStats_Duration : 00:27:16.499000000
FromStats_FrameCount : 437
FromStats_StreamSize : 15252





High Maintenance S02E06


High Maintenance S02E06


High Maintenance S02E06


High Maintenance S02E06


High Maintenance S02E06

All episodes